<svg xmlns="http://www.w3.org/2000/svg">
  <defs>
    <font id="prefix__simple-line-icons" horiz-adv-x="1024">
      <font-face underline-position="0" panose-1="2 0 5 3 0 0 0 0 0 0" underline-thickness="0" font-weight="400"
        font-family="simple-line-icons" bbox="-3.63064 -66.0327 1030.76 962.035" descent="-64" units-per-em="1024"
        unicode-range="U+0020-E620" ascent="960" />
      <glyph glyph-name="space" horiz-adv-x="512" />
      <glyph glyph-name="user-female" unicode=""
        d="M960.032 157.312L681.535 289.376c37.152 18.624 182.256 24.528 194.256 57.28 0 0-57.344 88.016-71.344 202.336-5.44 44.369-14.752 102.592-24 184.592C765.44 866.592 653.567 960 512.257 960h-.513c-141.312 0-253.184-93.408-268.176-226.4-9.248-82-18.56-140.224-24-184.592-14-114.336-71.344-202.336-71.344-202.336 12-32.752 157.088-38.656 194.256-57.28L63.968 157.312S0 134.848 0 81.84V-2.688C0-38.064 28.624-64 63.968-64h896.064c35.343 0 63.967 25.936 63.967 61.312V81.84c0 53.008-63.967 75.472-63.967 75.472zM63.999 0v81.84c0 3.408 12.096 11.6 21.936 15.344 2.127.752 3.44 1.344 5.44 2.32L369.87 231.568c22.128 10.464 36.32 32.687 36.593 57.151.256 24.464-13.44 46.976-35.313 57.936-21.68 10.88-50.336 16.256-95.248 24.032-10.656 1.872-25.216 4.496-39.344 7.312 18.32 41.105 38.56 98.593 46.529 163.633 1.968 16.193 4.496 34.416 7.312 54.592 4.848 34.336 10.848 77.872 16.752 130.224 11.168 98.865 95.28 169.553 204.592 169.553h.512c109.312 0 193.439-70.688 204.592-169.568 5.904-52.336 11.904-95.887 16.752-130.224 2.816-20.176 5.345-38.4 7.312-54.592 7.968-65.024 28.224-122.513 46.528-163.633-14.128-2.816-28.688-5.44-39.344-7.312-44.912-7.776-73.568-13.152-95.248-24.032-21.872-10.976-35.568-33.472-35.313-57.936.289-24.464 14.464-46.687 36.592-57.151L932.623 99.489c2-.976 3.312-1.568 5.44-2.32 9.84-3.744 20.496-11.936 21.936-15.344L960.031 0H64z" />
      <glyph glyph-name="people" unicode=""
        d="M746 124.72L544.529 236.322c74.88 58.912 95.216 174.688 95.216 239.601v135.12c0 89.472-118.88 189.12-238.288 189.12-119.376 0-241.408-99.664-241.408-189.12v-135.12c0-59.024 24.975-178.433 100.624-239.089L54 124.722S0 100.658 0 70.658V-10.43c0-29.84 24.223-54.064 54-54.064h692c29.807 0 54.031 24.224 54.031 54.064v81.088c0 31.807-54.032 54.063-54.032 54.063zM736.033-.495H64.002V56.72c4.592 3.343 11.008 7.216 16.064 9.536 1.503.688 3.007 1.408 4.431 2.224l206.688 112.096c18.848 10.224 31.344 29.184 33.248 50.528s-7.008 42.256-23.712 55.664c-53.664 43.024-76.656 138.32-76.656 189.152v135.12c0 45.968 86.656 125.12 177.408 125.12 92.432 0 174.288-78.065 174.288-125.12V475.92c0-50.128-15.568-145.84-70.784-189.28a64.098 64.098 0 01-24.224-55.664 64.104 64.104 0 0133.12-50.849l201.472-111.6c1.777-.975 4.033-2.031 5.905-2.848 4.72-2 10.527-5.343 14.783-8.288V-.495zM969.97 284.064L765.505 395.665c74.88 58.912 98.224 174.688 98.224 239.601v135.12c0 89.472-121.872 190.128-241.28 190.128-77.6 0-156.943-42.192-203.12-96.225 26.337-1.631 55.377-1.664 80.465-9.664 33.711 26.256 76.368 41.872 122.656 41.872 92.431 0 177.278-79.055 177.278-126.128V635.25c0-50.127-18.56-145.84-73.775-189.28a64.098 64.098 0 01-24.224-55.664 64.104 64.104 0 0133.12-50.848l204.465-111.6c1.776-.976 4.032-2.032 5.904-2.848 4.72-2 10.527-5.344 14.783-8.288v-56.912H830.817c19.504-14.72 25.408-35.776 32.977-64h106.192c29.807 0 54.03 24.224 54.03 54.064v80.096c-.015 31.84-54.047 54.096-54.047 54.096z" />
      <glyph glyph-name="user-follow" unicode=""
        d="M64.064 65.311c0 25.44 19.091 33.406 26.723 36.942l281.04 132.624c20.144 9.248 34.048 28.32 36.752 50.32 2.72 22-6.16 43.84-23.456 57.712-66.48 53.376-97.456 170.688-97.456 233.185v159.904c0 66.864 116.4 159.856 224.128 159.856 108.672 0 223.92-91.536 223.92-159.856v-159.92c0-61.552-25.6-179.312-94.256-233.359a63.99 63.99 0 01-23.968-57.808c2.624-22.16 16.592-41.313 36.848-50.624l95.92-45.504 15.808 63.872-85.008 39.776c88.656 69.777 118.656 206.832 118.656 283.648V736c0 105.92-146.624 223.855-287.92 223.855-141.312 0-288.13-117.936-288.13-223.855V576.08c0-69.872 31.888-211.248 121.393-283.088L64.018 160.367S.066 131.871.066 96.4V.367c0-35.344 28.64-63.968 63.95-63.968h703.92v64L64.066.367v64.944zm927.875 62.814h-96v96c0 17.68-14.336 32-32 32s-32-14.32-32-32v-96h-96c-17.664 0-32-14.32-32-32 0-17.664 14.336-32 32-32h96v-96c0-17.664 14.336-32 32-32s32 14.336 32 32v96h96c17.664 0 32 14.336 32 32 0 17.68-14.32 32-32 32z" />
      <glyph glyph-name="user-following" unicode=""
        d="M63.504.24l.002 64.942c0 25.44 19.103 33.424 26.72 36.944l281.04 132.624c20.143 9.248 34.047 28.32 36.752 50.32 2.72 22-6.16 43.84-23.457 57.712-66.48 53.376-97.456 170.704-97.456 233.185v159.92c0 66.864 116.4 159.856 224.128 159.856 108.672 0 223.936-91.536 223.936-159.856v-159.92c0-61.552-25.6-179.312-94.256-233.376a63.99 63.99 0 01-23.967-57.808c2.624-22.16 16.591-41.313 36.847-50.624l162.24-77.248 38.144 54.064-173.664 81.344c88.656 69.776 118.656 206.849 118.656 283.665v159.92c0 105.92-146.624 223.855-287.936 223.855S223.105 841.823 223.105 735.904v-159.92c0-69.872 31.888-211.248 121.392-283.088L63.457 160.24S-.495 131.744-.495 96.272V.24c0-35.344 28.64-63.968 63.951-63.968h639.712l-52 63.984zm948.706 236.253c-13.904 10.912-34.032 8.432-44.912-5.473L830.45 22.316l-85.056 85.073c-12.496 12.496-32.768 12.496-45.264 0s-12.496-32.752 0-45.248L813.266-50.995c12.496-12.496 32.752-12.496 45.248 0 3.04 3.024 5.312 6.544 6.88 10.288l152.304 232.304c10.88 13.904 8.432 34.016-5.488 44.896z" />
      <glyph glyph-name="user-unfollow" unicode=""
        d="M799.12 576.144l.001 159.92c0 105.92-146.608 223.855-287.904 223.855-141.312 0-288.128-117.936-288.128-223.855v-159.92c0-69.872 31.888-211.232 121.392-283.072l-281.04-132.64S-.511 131.936-.511 96.464V.432c0-35.344 28.64-63.968 63.951-63.968h607.936v64L63.488.432v64.944c0 25.44 19.104 33.425 26.72 36.945l281.04 132.624c20.143 9.248 34.048 28.335 36.752 50.335 2.72 22-6.16 43.825-23.456 57.697-66.48 53.376-97.456 170.688-97.456 233.199v159.92c0 66.864 116.4 159.856 224.128 159.856 108.688 0 223.904-91.536 223.904-159.856v-159.92c0-61.552-25.6-179.328-94.224-233.36a63.793 63.793 0 01-23.968-57.792c2.592-22.16 16.56-41.313 36.848-50.624l18.112-8.352 28.065 51.792-19.489 14.72c88.657 69.727 118.656 206.768 118.656 283.584zM924.625 81.199l90.496 90.512c12.496 12.464 12.496 32.752 0 45.248-12.48 12.48-32.753 12.48-45.233 0l-90.512-90.528-90.496 90.528c-12.496 12.48-32.769 12.48-45.25 0-12.495-12.496-12.495-32.784 0-45.248l90.497-90.512-90.496-90.496c-12.496-12.48-12.496-32.768 0-45.264 12.48-12.464 32.753-12.464 45.249 0l90.496 90.511 90.512-90.511c12.48-12.464 32.753-12.464 45.233 0 12.496 12.496 12.496 32.784 0 45.264z" />
      <glyph glyph-name="user" unicode=""
        d="M511.728 896c108.672 0 223.92-91.534 223.92-159.854v-159.92c0-61.552-25.6-179.312-94.256-233.376a63.99 63.99 0 01-23.968-57.809c2.624-22.16 16.592-41.312 36.848-50.625l278.496-132.064c2.176-.992 26.688-5.104 26.688-39.344l.032-62.464L64 .496V65.44c0 25.44 19.088 33.425 26.72 36.945l281.023 132.624c20.16 9.248 34.065 28.32 36.769 50.32 2.72 22-6.16 43.84-23.456 57.712-66.48 53.376-97.456 170.704-97.456 233.185v159.92C287.615 802.993 404.016 896 511.728 896zm0 64.002c-141.312 0-288.127-117.938-288.127-223.857v-159.92c0-69.872 31.888-211.248 121.392-283.088l-281.04-132.64S.001 132.001.001 96.529V.497c0-35.344 28.64-63.968 63.951-63.968h895.552c35.344 0 63.968 28.624 63.968 63.968v96.032c0 37.6-63.968 63.968-63.968 63.968L681.008 292.561c88.656 69.776 118.656 206.849 118.656 283.665v159.92c0 105.92-146.64 223.855-287.936 223.855z" />
      <glyph glyph-name="trophy" unicode=""
        d="M735.808 32.128H285.872c-17.68 0-32-14.32-32-32s14.32-32 32-32h449.936c17.68 0 32 14.32 32 32s-14.304 32-32 32zm281.502 806.24c-3.024 14.88-16.16 25.568-31.343 25.568H829.343v31.936c0 17.68-14.32 32-32 32H221.807c-17.68 0-32-14.32-32-32v-31.936H38.031c-15.183 0-28.32-10.688-31.344-25.568-.944-4.624-22.4-116.752 39.904-193.152 35.84-43.92 90.607-66.928 162.495-68.976C250.078 455.088 353.15 365.376 477.278 352V129.088H381.5c-17.68 0-32-14.32-32-32s14.32-32 32-32H640.19c17.68 0 32 14.32 32 32s-14.32 32-32 32h-98.912v222.88c124.336 13.12 227.632 102.8 268.736 224.08 74.336 1.088 130.736 24.24 167.393 69.168 62.304 76.416 40.848 188.528 39.904 193.152zM96.401 685.44c-28.336 34.496-31.184 85.41-29.744 114.497H189.81V691.905c0-17.296 1.6-34.16 3.936-50.769-43.68 4.08-76.447 18.832-97.344 44.304zm668.944 6.465c0-153.088-114.721-277.663-255.713-277.663-141.056 0-255.808 124.56-255.808 277.663v171.968H765.36V691.905h-.015zm162.255-6.463c-21.68-26.432-56.032-41.488-102.272-44.864 2.384 16.784 4.016 33.84 4.016 51.328v108.032h128c1.44-29.12-1.408-80-29.744-114.496z" />
      <glyph glyph-name="speedometer" unicode=""
        d="M511.984 923.872C230.016 923.872.639 694.464.639 412.496c0-177.152 89.68-339.185 239.903-433.408 14.944-9.472 34.688-4.88 44.097 10.096s4.88 34.72-10.096 44.095c-54.096 33.952-99.04 78.048-133.424 128.88l33.552 19.376c15.311 8.848 20.56 28.4 11.712 43.711-8.88 15.344-28.464 20.56-43.712 11.712l-33.6-19.391c-24.4 50.511-39.297 105.792-43.281 163.424h35.616c17.68 0 32 14.32 32 32s-14.32 32-32 32H65.95c4.24 58.687 19.776 114.304 44.56 164.592l32.16-18.56a31.745 31.745 0 0115.97-4.288c11.055 0 21.807 5.744 27.743 16 8.847 15.312 3.6 34.88-11.712 43.713l-31.84 18.368c32.112 46.832 72.864 87.296 119.984 119.023l18.016-31.2c5.935-10.288 16.687-16 27.743-16 5.44 0 10.944 1.376 15.969 4.288 15.311 8.848 20.56 28.4 11.712 43.712l-17.953 31.072c49.329 23.792 103.68 38.656 160.976 42.816v-39.872c0-17.68 14.32-32 32-32s32 14.32 32 32v40c58.592-4.08 114.128-19.391 164.384-43.95l-17.36-30.049c-8.848-15.311-3.6-34.88 11.712-43.712a31.745 31.745 0 0115.969-4.288c11.055 0 21.807 5.712 27.743 16l17.28 29.936a451.19 451.19 0 00118.88-118.816l-29.968-17.312c-15.311-8.847-20.56-28.4-11.711-43.71 5.935-10.289 16.687-16 27.743-16 5.44 0 10.944 1.375 15.969 4.287l30.127 17.392C938.638 558.161 954 502.61 958.094 444H922.96c-17.68 0-32-14.32-32-32s14.32-32 32-32h35.12c-4.048-56.88-18.592-111.439-42.496-161.312l-31.68 18.288c-15.28 8.848-34.912 3.568-43.712-11.713-8.848-15.311-3.6-34.88 11.712-43.712l31.776-18.351c-35.103-52.24-81.44-97.393-137.359-131.824-15.055-9.28-19.712-29.008-10.464-44.032 6.065-9.808 16.529-15.216 27.28-15.216a31.896 31.896 0 0116.753 4.752c152.464 93.904 243.472 256.784 243.472 435.632 0 281.952-229.408 511.36-511.376 511.36zm236.127-411.6c15.296 8.848 20.544 28.398 11.712 43.71-8.832 15.296-28.416 20.544-43.712 11.696L542.287 467.326c-9.28 5.248-19.856 8.496-31.28 8.496-35.28 0-63.84-28.591-63.84-63.807 0-35.248 28.576-63.84 63.84-63.84 35.28 0 63.84 28.592 63.84 63.84 0 .064-.016.144-.016.209z" />
      <glyph glyph-name="social-youtube" unicode=""
        d="M940.736 770.304C912.992 790.272 835.68 816.8 511.728 816.8c-347.152 0-398.656-30.464-415.185-40.432C8.575 723.521.223 489.553-.544 442.112.512 379.456 10.64 170.992 96.48 119.424c16.497-9.935 67.712-40.223 415.248-40.223 324.16 0 401.376 26.4 429.008 46.288 74.976 53.935 83.6 239.68 83.808 317.439-.192 62.528-6.752 271.872-83.807 327.376zm-37.376-592.88c-11.152-8.032-75.186-34.223-391.634-34.223-305.936 0-370.128 23.744-382.256 31.056-30.88 18.528-63.472 116.88-66.031 268.032 2.528 150.816 35.568 260.912 66.097 279.216 12.16 7.344 76.591 31.28 382.19 31.28 316.192 0 380.4-26.369 391.633-34.433 27.409-19.744 56.752-123.68 57.184-275.632-.432-154.336-29.968-245.712-57.184-265.296zM720.415 473.17L432.481 649.859a32.003 32.003 0 01-32.257.464 32.016 32.016 0 01-16.288-27.872V269.01a32.016 32.016 0 0132-32 32.02 32.02 0 0116.527 4.592L720.4 418.355c9.6 5.807 15.472 16.19 15.472 27.407s-5.856 21.632-15.456 27.408zM447.953 325.699v240.097l194-120.032z" />
      <glyph glyph-name="social-twitter" unicode=""
        d="M684.4 801.312c52.88 0 100.621-21.636 134.253-56.372 41.84 8.096 81.28 22.848 116.721 43.28-13.712-41.633-42.88-76.56-80.815-98.656 37.12 4.368 72.656 13.904 105.632 28.16-24.72-35.744-55.84-67.216-91.776-92.368.336-7.632.529-15.344.529-23.023 0-235.728-185.008-507.615-523.312-507.615-103.84 0-200.56 29.631-281.903 80.223a377.607 377.607 0 0143.84-2.527c86.16 0 165.503 28.496 228.463 76.4-80.528 1.376-148.496 53.008-171.808 123.84a188.078 188.078 0 0134.624-3.216c16.72 0 33.008 2.16 48.4 6.256-84.128 16.336-147.536 88.448-147.536 174.93v2.287c24.816-13.376 53.152-21.408 83.344-22.336-49.376 32.033-81.84 86.56-81.84 148.465 0 32.72 9.089 63.376 24.913 89.632C216.817 660.8 352.337 589.76 505.217 582.288c-3.153 13.025-4.784 26.784-4.784 40.624 0 98.544 82.351 178.4 183.967 178.4zm275.789-83.621h.16-.16zM684.397 865.308c-125.664 0-229.773-91.809-245.806-210.433-102.816 20.656-196.32 75.088-263.504 154.944a63.993 63.993 0 01-48.977 22.815 66.23 66.23 0 01-5.023-.192 64.115 64.115 0 01-49.776-30.784 237.575 237.575 0 01-34.097-122.656c0-28.848 5.183-56.944 15.008-83.216-10.464-11.632-16.496-26.848-16.496-42.912v-2.288c0-62.689 24.784-120.864 65.936-164.464-2.368-10.976-1.84-22.464 1.776-33.472 14.193-43.183 40.033-80.4 73.537-108.75-22.497-5.009-45.712-7.537-69.409-7.537-12.528 0-24.72.688-36.256 2.097-2.56.32-5.088.432-7.632.432-26.88 0-51.28-16.944-60.336-42.784-9.936-28.32 1.089-59.712 26.56-75.568 94.529-58.817 203.712-89.872 315.712-89.872 364.032 0 583.008 284.976 587.264 563.344a429.584 429.584 0 0178.448 85.152 63.392 63.392 0 0112.96 38.496c0 21.776-10.895 41.024-27.487 52.593 7.184 24.624-1.009 51.28-21.009 67.568-11.68 9.504-26 14.336-40.4 14.336a63.75 63.75 0 01-31.968-8.56c-21.152-12.193-43.776-21.841-67.6-28.786-43.105 32.432-96.545 50.496-151.425 50.497z" />
      <glyph glyph-name="social-tumblr" unicode=""
        d="M528.016 896.256l-.002-223.871h224.32v-95.968H529.006l-.32-278.528c0-51.776 2.688-85.009 8.16-99.745 8.528-23.248 39.568-53.008 97.184-53.008 44.689 0 104.977 13.44 150.16 47.248V43.072c-37.68-17.968-72.72-25.216-103.248-32.464-30.56-7.215-63.663-10.847-99.15-10.847-39.537 0-153.665 1.088-200.497 120.399-8.432 21.471-12.655 52.655-12.655 93.471v362.624H239.792l.624 98.128c42.656 0 170.624 25.905 170.624 221.872zm-.002 64.001l-116.976.002c-35.344 0-64-28.656-64-64 0-146.496-81.632-157.872-106.624-157.872-35.216 0-63.84-28.464-64-63.68l-.624-98.128c-.096-17.024 6.624-33.376 18.624-45.471a64.057 64.057 0 0145.376-18.849h64.848V213.635c0-49.376 5.6-87.632 17.088-116.88 28.847-73.44 97.376-161.009 260.064-161.009 40.288 0 78.591 4.224 113.872 12.56l7.055 1.664c29.872 7.024 68.032 15.776 109.008 35.312A63.979 63.979 0 01848.19 43.06V192.37a63.985 63.985 0 01-35.344 57.214c-9.055 4.56-18.88 6.784-28.656 6.784a64.008 64.008 0 01-38.337-12.752c-38.095-28.529-86.847-34.496-111.808-34.496-25.6 0-35.119 9.28-37.215 11.744-1.087 5.024-4.127 23.776-4.127 77.008l.223 214.528h159.408c35.344 0 64 28.657 64 64v95.968c0 35.344-28.656 64-64 64h-160.32v159.888c0 35.344-28.656 64-64 64z" />
      <glyph glyph-name="social-facebook" unicode=""
        d="M581.76 879.504c3.808 0 5.999-.16 5.999-.16h83.568l-.431-96h-83.008c-45.68 0-44.624-39.007-44.624-39.007V592.145h161.632l-22.56-95.872h-139.6V16.497h-95.904l-.064 479.776H319.36l-.256 95.872h127.712v149.184c.015 130.08 108.048 138.176 134.944 138.176zm89.567-.159h.16-.16zm-89.567 64.16c-23.008 0-67.97-3.809-110.562-29.473-40.32-24.256-88.368-73.935-88.368-172.688v-85.183h-63.712c-17.008 0-33.312-6.784-45.344-18.817a64.003 64.003 0 01-18.655-45.408l.256-95.872c.128-35.248 28.752-63.776 64-63.776h63.408l.064-415.776c0-35.344 28.657-64 64-64h95.905c35.343 0 64 28.656 64 64v415.776h75.6c28.4 0 53.407 18.72 61.407 45.967l22.56 95.873c5.68 19.343 1.903 40.255-10.192 56.368a63.912 63.912 0 01-51.217 25.664h-97.632v63.152l63.632.032c35.216 0 63.84 28.464 64 63.712l.431 92.752a64.3 64.3 0 01.097 3.536c0 35.344-28.592 64-63.935 64h-81.936c-1.84.096-4.496.16-7.807.161z" />
      <glyph glyph-name="social-dropbox" unicode=""
        d="M1023.42 735.248a32.048 32.048 0 01-14.976 24.914L723.26 938.13c-11.6 7.216-26.431 6.32-37.055-2.289L511.98 794.897 337.789 935.841c-10.592 8.56-25.536 9.535-37.056 2.287L15.549 760.16A32.046 32.046 0 01.572 735.248c-.752-10.224 3.472-20.16 11.312-26.751L177.1 569.681 35.564 458.497c-8.096-6.32-12.624-16.177-12.224-26.417s5.681-19.664 14.225-25.36l130.976-87.312c-6.432-5.84-10.544-14.208-10.544-23.6V167.474c0-11.12 5.776-21.44 15.248-27.28L495.213-42.24c5.12-3.152 10.944-4.72 16.752-4.72s11.632 1.6 16.784 4.751l318.224 182.432a32.013 32.013 0 0115.216 27.248V318c0 2.065-.24 4.08-.608 6.033l124.048 82.688a31.97 31.97 0 0114.224 25.328c.4 10.256-4.095 20.08-12.16 26.416L846.781 569.616l165.312 138.88c7.856 6.592 12.08 16.528 11.328 26.751zM736.673 569.346L511.985 428.562 287.297 569.346 511.985 715.57zM86.801 729.153l228.464 142.592 142.368-115.184-227.344-147.968zm143.12-199.376l225.969-141.6-128.064-98.032-218 145.312zm-7.903-246l89.344-59.567c11.344-7.569 26.32-7.057 37.183 1.215l129.408 99.04v-282.8l-255.936 143.68v98.432zm576.191-98.431L541.953 39.665v287.776l132.656-101.968c5.712-4.4 12.624-6.624 19.504-6.624a31.81 31.81 0 0117.744 5.376l86.336 57.568v-96.448h.016zm115.248 250.175L695.426 290.194l-127.44 97.936 226 141.632zM793.666 608.595L566.321 756.563l142.4 115.184 228.464-142.592z" />
      <glyph glyph-name="social-dribbble" unicode=""
        d="M511.984 959.728c-69.856 0-136.464-14.111-197.184-39.567a32.015 32.015 0 01-6.145-2.672C127.391 838.672.271 657.936.271 447.984c0-282.16 229.568-511.712 511.712-511.712 282.192 0 511.744 229.568 511.744 511.712 0 282.192-229.552 511.744-511.744 511.744zm447.745-511.744c0-3.584-.192-7.12-.272-10.67-49.025 13.007-173.393 37.439-326.801 3.742-13.52 30.896-28.512 62.575-45.28 94.816-1.408 2.704-2.784 5.28-4.176 7.952 164.128 63.344 233.888 148.672 262.768 201.952C916.657 666.56 959.73 562.224 959.73 447.984zM797.537 792.562c-14.912-35.2-69.04-126-244.719-191.888-78.897 144.224-140.225 230.672-174.593 274.64 42.256 13.264 87.184 20.416 133.76 20.416 108.432 0 207.983-38.768 285.552-103.168zM316.05 850.481c27.216-33.28 90.384-117.056 175.104-270.447-200-60.288-362.448-53.04-418.832-47.792 26.816 140.144 119.072 257.312 243.729 318.239h-.001zM64.273 447.986c0 6.896.21 13.745.53 20.577 19.249-1.935 49.153-4.079 88.289-4.079 86.895 0 217.712 10.752 369.008 58.144a2450.562 2450.562 0 008.544-16.273c14.431-27.776 27.487-55.184 39.407-82.064-27.376-8.609-55.392-19.073-83.872-31.97-182.624-82.703-268.192-200.703-298.673-252.335-76.273 80.32-123.232 188.752-123.232 308zM236.1 95.764c16.24 30.752 90.607 154.082 276.447 238.258 27.968 12.672 55.52 22.784 82.384 30.912 60.736-154.32 81.808-281.568 88.177-330.593C630.356 12.437 572.58.276 511.988.276c-104.016 0-199.792 35.76-275.888 95.488zm507.518-30.798c-9.232 61.6-32.145 177.392-85.969 315.664 148.448 29.552 265.952.56 295.616-8.08C931.042 242.342 852.53 131.062 743.618 64.966z" />
      <glyph glyph-name="shield" unicode=""
        d="M907.952 815.52a63.997 63.997 0 01-43.663 17.217c-1.472 0-2.943-.065-4.4-.16-.912-.065-11.184-.689-27.28-.689-26.656 0-78.688 1.808-127.969 13.936-63.664 15.631-137.12 88.16-158.496 102.464a63.959 63.959 0 01-35.568 10.783 64.186 64.186 0 01-35.536-10.752c-2.592-1.744-79.504-84.032-154.752-102.496C271.04 833.695 218 831.887 191.376 831.887c-16.096 0-26.369.624-27.376.689-1.409.096-2.817.16-4.225.16A64.186 64.186 0 01116 815.456c-12.945-12.096-20.32-29.008-20.32-46.72V608.704c0-591.632 387.12-667.808 403.567-670.783a65.614 65.614 0 0111.313-1.008c3.776 0 7.6.336 11.312 1.008 16.432 2.976 406.4 79.151 406.4 670.783v160.032a63.811 63.811 0 01-20.32 46.784zm-43.647-206.816C864.305 63.792 510.591.927 510.591.927s-350.88 62.88-350.88 607.776v160.032s12.096-.848 31.68-.848c33.568 0 90.032 2.464 144.16 15.776 88.624 21.744 175.024 111.408 175.024 111.408s90.256-89.664 178.784-111.408c54.192-13.312 109.68-15.776 143.249-15.776 19.568 0 31.68.848 31.68.848s.016-20.352.016-160.031h.001zm-216.706 5.055c-12.496 12.496-32.769 12.496-45.249 0l-90.512-90.512-90.511 90.512c-12.497 12.496-32.769 12.496-45.265 0s-12.496-32.769 0-45.249l90.512-90.512-90.512-90.511c-12.496-12.48-12.496-32.753 0-45.25s32.769-12.496 45.265 0l90.511 90.512 90.512-90.511c12.48-12.497 32.753-12.497 45.249 0s12.496 32.768 0 45.249l-90.512 90.511L647.6 568.51c12.496 12.48 12.496 32.753 0 45.249z" />
      <glyph glyph-name="screen-tablet" unicode=""
        d="M832.144 960H191.856c-53.024 0-96-42.976-96-96V32c0-53.024 42.976-96 96-96h640.288c53.024 0 96 42.976 96 96v832c0 53.024-42.976 96-96 96zm32-928c0-17.664-14.336-32-32-32H191.856c-17.664 0-32 14.336-32 32v832c0 17.664 14.336 32 32 32h640.288c17.664 0 32-14.336 32-32V32zM512.048 159.824c-35.28 0-63.84-28.592-63.84-63.824s28.56-63.841 63.84-63.841c35.264 0 63.84 28.608 63.84 63.84 0 35.233-28.576 63.825-63.84 63.825zm64 704.176h-128c-17.664 0-32-14.336-32-32s14.336-32 32-32h128c17.664 0 32 14.336 32 32s-14.336 32-32 32z" />
      <glyph glyph-name="screen-smartphone" unicode=""
        d="M704.144 960H319.856c-53.024 0-96-42.976-96-96V32c0-53.024 42.976-96 96-96h384.288c53.024 0 96 42.976 96 96v832c0 53.024-42.976 96-96 96zm32-928c0-17.664-14.336-32-32-32H319.856c-17.664 0-32 14.336-32 32v832c0 17.664 14.336 32 32 32h384.288c17.664 0 32-14.336 32-32V32zM512.048 159.824c-35.28 0-63.84-28.592-63.84-63.824s28.576-63.841 63.84-63.841c35.28 0 63.84 28.608 63.84 63.84 0 35.233-28.56 63.825-63.84 63.825zm64 704.176h-128c-17.664 0-32-14.336-32-32s14.336-32 32-32h128c17.664 0 32 14.336 32 32s-14.336 32-32 32z" />
      <glyph glyph-name="screen-desktop" unicode=""
        d="M960 864.192H64c-35.184 0-64-28.8-64-64V256c0-35.184 28.816-63.983 64-63.983h416V95.809H320c-17.664 0-32-14.336-32-32s14.336-32 32-32h384c17.664 0 32 14.335 32 32 0 17.664-14.336 32-32 32H544v96.208h416c35.184 0 64 28.8 64 63.983v544.192c0 35.2-28.816 64-64 64zM960 256H64v544.192h896V256z" />
      <glyph glyph-name="plane" unicode=""
        d="M934.32 894.096c10.432 0 17.776-1.938 21.6-3.41 4.592-12.224 10.753-56.031-34.528-101.343L690.4 558.367l1.664-28.656c3.504-59.968 10-167.44 15.6-259.567 4.944-82 9.633-159.44 9.936-166.032.16-4.529.225-5.601-3.999-10.689-9.44-11.472-27.056-30.912-41.904-47.024-23.024 62.032-71.408 193.057-98.128 266.4l-34.336 94.368-71.024-71.024-130.608-125.584-18.192-18.16-.56-25.68c-.432-20.496-.336-57.28-.288-89.712.064-22.592.129-43.12-.031-54.432-.288-.528 4.368-1.152 3.936-1.904-2.784 4.464-5.776 9.28-8.944 14.288-26.336 42-62.784 100.096-73.904 118.224l-8.128 13.28-13.344 8.065c-48.528 29.311-102.288 63.151-135.088 84.287 1.136.656 2.063-2.816 2.815-2.415h2.128c10.32 0 27.376-.224 46.496-.496 25.008-.336 53.376-.752 75.088-.752 8.32 0 15.712.064 21.664.192l25.68.592 18.16 18.16 125.744 129.712 70.784 70.752-93.935 34.56c-70.592 25.967-205.808 76.464-269.056 100.224 16.223 14.944 35.775 32.688 47.183 42.129 3.184 2.624 5.665 3.967 7.376 3.967l2.256-.064c7.056-.336 94.688-6.064 179.407-11.6 89.936-5.872 191.44-12.496 249.151-16.16l28.848-1.808 231.024 231.04c32.448 32.4 64.32 37.248 80.449 37.248zm.001 63.997c-37.808 0-84.222-14.526-125.678-55.998L598.035 691.503c-118.624 7.504-422.432 27.6-429.968 27.808-1.344.064-3.008.129-4.88.129-10.256 0-27.968-1.968-48.128-18.624-23.664-19.569-73.008-65.97-73.008-65.97-11.904-11.935-17.936-26.719-16.496-40.623.88-8.4 5.44-23.712 26.064-31.777 12.528-4.912 211.904-79.504 303.969-113.376L229.844 319.358c-5.569-.128-12.465-.192-20.257-.192-38.336 0-97.776 1.248-121.601 1.248-3.152 0-5.68 0-7.473-.064-7.248-.224-22.256 3.344-61.84-29.744l-2.816-2.624C3.985 276.11 1.201 264.27.945 256.446c-.256-8.064 1.904-19.68 13.568-29.024 7.008-5.664 96.848-63.184 170.527-107.68 17.665-28.817 98.945-158 103.185-165.008 6.193-10.464 16.32-16.432 28.433-16.816h1.008c11.776 0 23.872 5.84 35.712 17.344 33.504 39.184 28.88 55.407 29.023 62.224.528 21.376-.368 111.936.4 147.84l130.592 125.6c33.376-91.68 106.336-289.008 111.216-301.567 8.128-20.624 23.44-25.153 31.84-26a36.208 36.208 0 014.16-.225c12.625 0 25.712 5.936 36.432 16.655 0 0 46.256 49.088 65.904 72.976 19.68 23.872 18.913 44.256 18.529 53.872-.16 6.656-18.689 308.816-25.569 426.816L966.561 744.11c74.657 74.689 62.785 164.688 35.057 192.368-12.24 12.304-37.024 21.615-67.297 21.616z" />
      <glyph glyph-name="notebook" unicode=""
        d="M849.152 960H211.153c-46 0-66.032-34-66.032-66V766.688h-34.928c-17.311 0-31.344-14.032-31.344-31.345 0-17.311 14.033-31.343 31.344-31.343h34.928V575.247h-31.936c-17.312 0-31.344-14.033-31.344-31.344 0-17.313 14.032-31.345 31.343-31.345h31.936v-129.44h-32.624c-17.312 0-31.344-14.032-31.344-31.344s14.032-31.344 31.344-31.344h32.624V191.967h-32.624c-17.312 0-31.344-14.032-31.344-31.343s14.032-31.344 31.344-31.344h32.624V0c0-53.025 41.536-64 64.528-64h639.504c53.025 0 96 42.975 96 96v832c0 53.024-42.96 96-96 96zM209.121 0l-.001 129.279h33.344c17.311 0 31.344 14.032 31.344 31.344s-14.033 31.344-31.344 31.344H209.12v128.464h33.344c17.311 0 31.344 14.033 31.344 31.344s-14.033 31.344-31.344 31.344H209.12v129.44h34.032c17.313 0 31.345 14.032 31.345 31.345 0 17.311-14.032 31.344-31.344 31.344h-34.032V704h31.024c17.312 0 31.344 14.032 31.344 31.343 0 17.313-14.032 31.345-31.344 31.345h-31.024V894c0 .752.064 1.376.16 1.936.496.032 1.12.064 1.872.064h510V0H209.121zm672.031 31.999c0-17.664-14.336-32-32-32h-64v896h64c17.664 0 32-14.336 32-32v-832z" />
      <glyph glyph-name="mustache" unicode=""
        d="M792.848 223.28c-101.344 0-158.865 47.629-196.945 79.148-13.472 11.153-25.727 21.905-36.88 31.665-16.912 14.847-38 33.343-45.344 35.903-.223 0-3.712.16-3.935.192-1.168-.096-4.144-.687-4.448-.72-5.072-2.064-23.087-17.568-37.568-30-13.136-11.28-28.111-24.16-45.039-37.376l-3.088-2.368c-43.472-33.935-97.584-76.159-193.152-76.159-70.992 0-140.928 32.128-182.576 83.872-27.92 34.689-57.296 95.025-38.672 185.473 2.256 10.944 10.016 19.904 20.432 23.632 10.48 3.776 22.016 1.712 30.608-5.376.624-.464 22.576-17.344 59.057-17.344 18.368 0 37.504 4.336 56.832 12.945 33.135 14.752 56.735 56.127 81.71 84.063 34.176 38.16 72.848 81.408 136.689 81.904 44.048 0 83.792-16.288 119.248-48.496 35.311 32.065 74.767 48.257 117.68 48.257 65.103-.496 104.592-43.776 139.439-82 25.44-27.872 49.472-69.216 82.608-83.968 19.328-8.592 38.672-12.943 57.488-12.943 37.872 0 61.504 17.311 62.449 18.063 8.767 6.496 20.319 8.193 30.48 4.225 10.143-4 17.679-12.88 19.711-23.664 17.088-89.44-12.96-149.408-41.184-183.968-42.767-52.4-113.903-84.96-185.6-84.96zM510.733 434.125c.992 0 3.683-.095 4.627-.19.032 0 4.688-.336 4.688-.369.336-.032 3.008-.368 3.296-.432 23.153-3.28 44.624-22.128 77.216-50.688 10.704-9.408 22.496-19.744 35.472-30.496 34.784-28.816 78.097-64.656 156.816-64.656 53.311 0 105.743 23.632 136.783 61.68 20.4 24.975 31.009 54.72 31.68 88.784-15.024-4.689-33.28-8.192-54.32-8.192-27.664 0-55.568 6.192-82.976 18.368-45.248 20.095-76.304 69.12-103.68 99.152-34.529 37.872-57.473 61.088-92.081 61.376-46.16 0-75.953-29.056-94.416-50.912-6.033-7.12-14.817-11.216-24.097-11.216-9.28 0-18.08 4.128-24.08 11.248-18.529 21.936-48.416 51.12-93.84 51.12-35.088-.257-57.408-23.281-90.992-60.85-27.056-30.223-57.696-79.471-103.231-99.68-27.392-12.191-55.104-18.367-82.304-18.367-20.4 0-38.064 3.408-52.624 8.032-.032-34.72 10.111-64.912 30.335-90.032 29.936-37.153 81.04-60.256 133.439-60.256 74 0 114.896 31.935 154.464 62.815l3.088 2.416c16.048 12.529 30.24 24.752 42.688 35.44 28.512 24.497 47.329 40.69 67.649 44.289.015-.016 9.695 1.616 16.4 1.616z" />
      <glyph glyph-name="mouse" unicode=""
        d="M513.584 960C355.456 960 224.08 831.775 224.08 673.663V222.351c0-158.128 131.376-286.352 289.504-286.352S799.936 64.223 799.936 222.335v451.328c0 158.112-128.224 286.336-286.352 286.336V960zm222.352-737.665c0-122.592-99.742-222.336-222.351-222.336S288.08 99.743 288.08 222.335v451.328c0 122.592 102.912 222.336 225.504 222.336s222.352-99.744 222.352-222.336V222.335zM512.338 767.999c-17.664 0-32-14.336-32-32v-160c0-17.664 14.336-32 32-32s32 14.336 32 32v160c0 17.664-14.336 32-32 32z" />
      <glyph glyph-name="magnet" unicode=""
        d="M960.288 899.824v29.008c0 17.68-14.32 32-32 32H703.664c-17.68 0-32-14.32-32-32V798.176c0-.048.032-.096.032-.144v-397.52c0-96.32-54.336-174.656-150.656-174.656s-168.656 78.336-168.656 174.656v499.312h-.095v29.008c0 17.68-14.32 32-32 32H95.665c-17.68 0-32-14.32-32-32V798.176c0-.656.335-1.2.368-1.84V385.84c0-248.912 198.784-450.656 447.664-450.656S960.353 136.928 960.353 385.84v513.984zm-64-2.992V768.496H736.032v128.336h160.256zm-608 0V768.496H128.032v128.336h160.256zM511.68-.832c-213.216 0-383.663 173.472-383.663 386.655v318.672h160.336V400.511c0-131.808 100.848-238.655 232.655-238.655S735.68 268.704 735.68 400.511v303.984h160.656V385.823C896.336 172.639 724.912-.832 511.68-.832z" />
      <glyph glyph-name="magic-wand" unicode=""
        d="M1020.51 530.624L917.727 684.302l51.152 178.816c3.184 11.216.064 23.28-8.224 31.504-8.256 8.256-20.256 11.311-31.536 8.031l-178.512-52.128L596.319 954.43c-9.712 6.529-22.16 7.313-32.464 1.937-10.369-5.312-17.025-15.871-17.409-27.503l-5.536-185.936-146.496-114.592c-9.183-7.184-13.712-18.816-11.872-30.32s9.808-21.087 20.816-25.023l137.456-49.28c-.928-.736-1.904-1.393-2.768-2.257L7.294-9.297c-12.496-12.496-12.496-32.752 0-45.248 6.256-6.256 14.432-9.376 22.624-9.376 8.192 0 16.368 3.12 22.624 9.376l530.752 530.752c2.065 2.064 3.664 4.4 5.04 6.816l53.792-147.552a32.058 32.058 0 0125.152-20.656 31.748 31.748 0 014.912-.368A32.044 32.044 0 01697.5 326.88l113.776 147.168 183.904 6.56c11.664.4 22.16 7.12 27.44 17.535 5.264 10.384 4.448 22.848-2.112 32.48zm-226.461 6.83c-9.504-.32-18.368-4.882-24.192-12.401l-87.472-113.104-48.976 134.32c-3.248 8.944-10.32 15.936-19.28 19.152l-134.592 48.256 112.624 88.064c7.504 5.872 11.968 14.752 12.288 24.256l4.256 142.944 118.592-79.872a32.192 32.192 0 0126.849-4.191l137.248 40.095-39.344-137.472a32.18 32.18 0 014.336-26.848l80.56-118.128z" />
      <glyph glyph-name="hourglass" unicode=""
        d="M833.056 895.392h-64.465V679.984c0-104.384-56.656-183.359-178.097-245.199 126.064-63.808 179.104-142.159 179.104-259.071 0-76.128-.336-140-.592-175.12h64.065c17.68 0 32-14.288 32-31.968s-14.32-32-32-32H190.943c-17.68 0-32 14.32-32 32s14.32 31.968 32 31.968h65.935c-.24 35.12-.591 99.008-.591 175.12 0 116.912 52.288 195.248 178.145 259.056C313.2 496.61 257.295 575.585 257.295 679.969v215.424h-66.352c-17.68 0-32 14.304-32 32 0 17.664 14.32 31.984 32 31.984h642.128c17.68 0 32-14.32 32-31.984-.016-17.696-14.32-32-32.016-32zm-512.785-719.68c0-76.288.353-140.224.593-175.12H705.04c.223 34.912.592 98.848.592 175.12 0 89.008-33.12 158.032-193.185 224.4-160.016-66.368-192.176-135.393-192.176-224.4zm384.352 719.68H321.264V679.984c0-61.376 20.64-140.416 191.168-210.528 170.56 70.112 192.191 149.152 192.191 210.528v215.408z" />
      <glyph glyph-name="graduation" unicode=""
        d="M990.848 263.696V521.84l16.096 8.496c10.464 5.44 17.055 16.225 17.183 28.032.128 11.777-6.256 22.689-16.592 28.368l-481.44 257.6c-9.631 5.28-21.28 5.249-30.976-.095l-478.8-257.92C6.126 580.64-.177 569.857-.113 558.16s6.496-22.4 16.817-27.97l210.384-111.983c-2.64-4.656-4.272-9.968-4.272-15.696V131.728c0-9.12 3.905-17.84 10.72-23.904 6.945-6.16 73.441-60.096 276.753-60.096 202.592 0 270.88 50.976 278 56.784 7.44 6.064 11.744 15.152 11.744 24.784v277.728c0 4.496-.944 8.768-2.608 12.64l129.424 68.369V263.52c-18.976-11.104-31.84-31.472-31.84-55.024 0-35.344 28.656-64 64-64s64 28.656 64 64c0 23.697-13.04 44.145-32.16 55.2zM736.031 147.632c-25.152-12.096-91.712-35.904-225.744-35.904-134.88 0-199.936 25.344-223.472 37.536V386.4l207.808-110.624a31.896 31.896 0 0115.184-3.84 31.675 31.675 0 0114.816 3.664l211.408 111.664V147.632zM510.063 340.19l-411.6 218.561 412.32 220.976 413.6-220.336z" />
      <glyph glyph-name="ghost" unicode=""
        d="M511.984 960.128c-229.216 0-415.681-199.903-415.681-445.6V-32.144c0-13.216 8.16-25.088 20.496-29.84 3.712-1.471 7.632-2.16 11.504-2.16 8.848 0 17.536 3.68 23.712 10.527l120.592 133.12 94.431-130.432a31.918 31.918 0 0125.68-13.215h.224a31.98 31.98 0 0125.664 12.912l94.816 127.344L606.606-51.04a31.993 31.993 0 0125.809-13.088 32.028 32.028 0 0125.808 13.055l95.569 130.288 118-132.624c8.816-9.904 22.944-13.376 35.28-8.624 12.4 4.72 20.624 16.624 20.624 29.905v546.672c0 245.68-186.496 445.584-415.712 445.584zm351.711-908.16l-88.402 99.376c-6.432 7.216-15.808 11.311-25.407 10.687a32.105 32.105 0 01-24.32-13.024l-93.12-127.008-93.008 126.912A31.975 31.975 0 01513.758 162h-.127a31.935 31.935 0 01-25.664-12.912L393.278 21.936l-92 127.088c-5.664 7.807-14.528 12.655-24.16 13.151-.592.032-1.151.065-1.743.065a31.984 31.984 0 01-23.712-10.528L160.287 50.864v463.68c0 210.4 157.776 381.601 351.68 381.601 193.937 0 351.713-171.184 351.713-381.6V51.97h.015zM671.997 607.84c-35.28 0-63.84-28.592-63.84-63.808 0-35.248 28.56-63.84 63.84-63.84s63.84 28.592 63.84 63.84c0 35.216-28.56 63.808-63.84 63.808zm-320 0c-35.28 0-63.84-28.592-63.84-63.808 0-35.248 28.576-63.84 63.84-63.84s63.84 28.592 63.84 63.84c0 35.216-28.56 63.808-63.84 63.808z" />
      <glyph glyph-name="game-controller" unicode=""
        d="M743.216 884.448c-25.6 12.016-49.806 23.328-71.838 34.384-56.464 28.288-107.664 42.032-156.464 42.032-98.288 0-166.304-56.704-208.96-99.36L99.106 654.432c-110.688-110.8-128.368-223.6-57.265-365.808 11.025-22.08 22.369-46.336 34.369-72.033C140.914 78.207 207.794-64.896 317.266-64.896c3.072 0 6.112.096 9.216.336 112.976 8.848 145.023 154.288 173.312 282.592 4.496 20.32 8.751 39.809 13.12 57.28 7.6 30.209 22.56 48.976 63.551 90.064l5.632 5.664 3.472 3.472 9.12 9.088c41.088 41.088 59.856 56.032 90.096 63.664 17.311 4.351 36.752 8.64 57.024 13.088 128.224 28.303 273.6 60.368 282.4 173.52 8.879 114.833-138.465 183.84-280.993 250.576zm215.25-244.783c-6.224-79.776-184.813-103.324-291.102-129.98-47.008-11.872-75.616-36.752-118.784-79.936-3.008-3.007-6.032-6.015-9.088-9.07-3.024-3.025-6.032-6.097-9.057-9.09-43.168-43.215-68-71.807-79.824-118.88C423.94 186.325 400.42 7.541 320.741 1.27a55.54 55.54 0 00-4.322-.144c-84.544 0-155.68 192.24-218.447 317.664-63.744 127.504-36.433 210.224 45.36 292.096 15.696 15.727 35.215 35.247 59.135 59.182 24.432 24.464 53.487 53.552 87.919 88 23.904 23.936 43.408 43.424 59.12 59.184 50.8 50.848 101.936 80.64 163.92 80.64 37.808 0 79.632-11.056 127.872-35.248 127.456-63.905 323.888-136.48 317.168-222.978zm-479.678-30.94h64v64h-64v-64zm0 96h64v64h-64v-64zm96 0h64v64h-64v-64zm0-96h64v64h-64v-64zM329.893 416.564l24.336 24.336c12 12 12 31.472 0 43.456-12 12-31.44 12-43.44 0l-24.352-24.352-24.352 24.352c-12 12-31.44 12-43.44 0s-12-31.456 0-43.456l24.351-24.352-24.351-24.351c-12-11.985-12-31.44 0-43.44s31.456-12 43.44 0l24.352 24.335 25.056-25.056c12-12 31.44-12 43.44 0s12 31.472 0 43.472z" />
      <glyph glyph-name="fire" unicode=""
        d="M508.416-63.28C267.168-63.28 96.047 104 96.047 334.497c0 122.368 73.376 254.192 76.496 259.712 6.368 11.343 18.88 17.504 31.936 16.063a32.052 32.052 0 0026.88-23.567c.192-.752 19.968-74.752 46.064-115.84 17.536-27.649 35.312-47.185 55.312-60.753-13.536 58.656-23.904 146.912-7.024 237.472C372.047 896.16 567.695 955.632 576.08 958.032c10.784 3.088 22.225.32 30.433-7.151 8.192-7.504 11.936-18.752 9.808-29.665-.32-1.744-32.624-175.776 35.936-324.064 6.223-13.471 14.912-29.12 24.256-44.784 2.656 21.504 6.784 44.368 13.12 66.56 25.152 87.969 90.192 118 92.944 119.217 10.848 4.944 23.504 3.312 32.88-4.032a32.061 32.061 0 0011.68-31.007c-.336-2.16-9.409-62.033 41.536-146.944 46-76.672 59.28-126.368 59.28-221.681C927.952 104 751.52-63.28 508.416-63.28zm-312.721 555.6c-17.568-44.304-35.665-103.246-35.665-157.806C160.03 141.106 304.222.738 508.398.738c206 0 355.536 140.368 355.536 333.776 0 83.536-10.32 122.32-50.16 188.752-26.624 44.368-39.777 84.256-46.065 116-6.336-10.256-12.223-22.784-16.527-37.872-19.504-68.193-14.592-147.937-14.527-148.753.944-14.273-7.744-27.473-21.248-32.257s-28.529-.064-36.817 11.663c-2.4 3.408-59.312 83.968-84.4 138.24-52.096 112.592-51.216 234.336-45.904 304.464-52.72-30.72-133.664-99.344-159.664-238.912-25.312-135.808 23.872-271.6 24.4-272.943 4.256-11.088 2-23.664-5.808-32.592-7.84-8.88-19.904-12.815-31.536-10.03-3.967.975-94.032 24.399-152.336 116.286-10.416 16.464-19.76 36.384-27.647 55.76z" />
      <glyph glyph-name="eyeglass" unicode=""
        d="M1025.38 308.208c-.976 13.84-53.008 319.313-61.151 368.226-.785 4.688-1.409 9.68-2.096 14.944-6.288 49.153-18.032 140.624-165.473 140.624-17.68 0-32-14.32-32-32s14.32-32 32-32c91.12 0 95.936-37.408 102-84.784.785-6.064 1.537-11.872 2.434-17.28 3.744-22.528 20.704-112.16 35.343-201.024-37.551 28.624-84.288 45.807-135.12 45.807-81.648 0-154.32-43.952-194.272-109.36-19.215 7.264-51.824 16.336-95.392 16.336-42.945 0-74.513-9.135-94.032-17.088-38.848 65.825-110.304 110.128-192.271 110.128-53.264 0-102.735-18.72-141.84-49.84 14.832 89.985 32.4 182.033 36.208 205.025.912 5.408 1.664 11.215 2.431 17.28 6.065 47.376 10.881 84.784 102.001 84.784 17.68 0 32 14.32 32 32s-14.32 32-32 32c-147.44 0-159.185-91.472-165.473-140.624-.688-5.248-1.312-10.256-2.097-14.944C48.42 627.506-.427 324.05-1.387 310.193c-.224-3.088.144-6.048.753-8.944-.304-4.624-.72-9.215-.72-13.904 0-123.344 103.344-223.344 226.688-223.344s223.344 100 223.344 223.344c0 18.656-2.544 36.672-6.848 53.984 13.12 5.28 36.832 12.335 69.808 12.335 32.176 0 56.464-6.431 70.304-11.328-4.609-17.631-7.329-35.967-7.329-54.992C574.613 164 677.957 64 801.301 64s223.344 100 223.344 223.344c0 3.344-.351 6.608-.495 9.92.976 3.488 1.52 7.137 1.232 10.944zm-800.036-180.19c-88.192 0-162.688 72.976-162.688 159.344s74.496 159.344 162.688 159.344c87.872 0 159.344-71.472 159.344-159.344s-71.472-159.344-159.344-159.344zm575.968 0c-88.192 0-162.689 72.978-162.689 159.346s74.496 159.344 162.688 159.344c76 0 139.632-53.488 155.456-124.784.656-6.528 1.2-12.672 1.616-18.288.193-2.689.912-5.217 1.84-7.665.16-2.88.433-5.712.433-8.624 0-87.857-71.472-159.328-159.344-159.328z" />
      <glyph glyph-name="envelope-open" unicode=""
        d="M1023.31 486.704c-1.36 11.312-5.614 21.713-12.095 30.465h.16l-.88.88c-3.28 4.32-7.12 8.128-11.408 11.504L581.807 932.96c-36.223 36.223-99.504 36.288-135.776 0L28.815 532.705c-9.024-8.4-28.88-31.09-28.88-53.345V-.16c0-35.184 28.816-64 64-64h896c35.183 0 64 28.816 64 64v478.256c.223 2.88-.065 5.76-.625 8.607zM269.794 233.665L63.938 44.098v371.184zm65.775-26.384c2.288 1.52 4.465 3.248 6.37 5.408.367.416.623.912.96 1.344l141.167 130c7.248 5.84 15.84 8.912 24.88 8.912 9.184 0 18.367-3.216 24.527-8L917.073-.159H110.337zm421.889 22.161l202.48 179.696V47.298zm-653.68 287.729l387.501 370.544c6.064 6.032 14.097 9.376 22.625 9.376 8.56 0 16.592-3.344 22.656-9.376l361.376-344.352h-.975l54.896-55.792-242.304-215.04-135.248 121.664c-37.68 29.536-91.775 30.816-131.68-1.376L317.121 277.235 75.33 490.579l26.992 26.592h1.456z" />
      <glyph glyph-name="envolope-letter" unicode=""
        d="M1023.31 486.72c-1.36 11.312-5.614 21.713-12.095 30.465h.16l-.88.88c-3.28 4.32-7.12 8.128-11.408 11.504L831.935 697.953v103.264c0 17.68-14.32 32-32 32H698.607l-116.8 99.711c-36.223 36.224-99.504 36.289-135.776 0l-116.4-99.711H223.935c-17.68 0-32-14.32-32-32V695.84L28.815 532.72c-17.343-11.472-28.88-31.088-28.88-53.344V-.127c0-35.184 28.817-64 64-64h896c35.184 0 64 28.816 64 64v478.24c.224 2.88-.064 5.76-.624 8.607zM268.865 234.497L63.937 44.418v370.896zm61.697-29.999a31.634 31.634 0 0111.377 8.224c1.712 1.935 3.056 4.063 4.224 6.255l137.904 127.936c7.248 5.84 15.84 8.913 24.88 8.913 9.183 0 18.367-3.216 24.527-8L917.314-.11H110.002zm427.777 25.776l201.6 178.896V47.538zm139.599 313.104h-.976l54.896-55.792-119.92-106.432v228.208zM491.283 887.682c6.064 6.032 14.095 9.376 22.623 9.376 8.56 0 16.592-3.344 22.656-9.376l64.624-54.464H426.754zm276.655-118.464V324.37l-57.312-50.88-136.32 123.568c-37.68 29.536-91.775 30.816-131.68-1.376l-126.624-117.44-60.064 53.008v437.968zM103.777 517.187l88.16 88.129V387.7L75.313 490.596l26.992 26.592h1.472z" />
      <glyph glyph-name="energy" unicode=""
        d="M595.344 895.28h.176-.176zm0 0l-72.207-379.377 261.584-.88L428.657.72l72.208 417.376-261.568.912zm.049 63.999c-1.728 0-3.455-.063-5.151-.19-11.296-.913-18.785-4.689-27.664-10.657a64.304 64.304 0 01-13.392-11.936 56.688 56.688 0 01-3.297-4.288L187.281 457.6c-14.16-19.408-16.24-45.025-5.36-66.433 10.864-21.408 32.832-34.976 56.912-35.152l184.736-1.344-58.08-342.192c-5.52-29.408 10.16-58.72 37.76-70.528a64.19 64.19 0 0125.391-5.216c20.112 0 36.64 9.408 49.041 26.4L836.737 477.44c14.16 19.409 16.225 45.057 5.36 66.433-10.864 21.408-32.832 34.977-56.912 35.152l-184.736.32 57.456 300.88a62.46 62.46 0 011.825 15.056c0 34.624-27.569 62.848-62.065 63.968-.767.032-1.52.032-2.271.032z" />
      <glyph glyph-name="emotsmile" unicode=""
        d="M781.264 352.848c-16.256 7.28-35.089-.064-42.257-16.192-.656-1.424-66.128-144.208-229.439-146.128-1.008 0-2-.033-3.008-.033-153.664 0-219.937 140.368-222.688 146.4-7.311 16-26.191 23.12-42.319 15.872-16.096-7.28-23.248-26.208-15.968-42.335 3.408-7.569 85.376-183.937 280.848-183.937 1.28 0 2.592.032 3.872.032 203.872 2.4 283.84 176.656 287.12 184.064 7.248 16.16-.032 35.072-16.16 42.256zM511.999 959.999c-282.784 0-512-229.216-512-512s229.216-512 512-512 512 229.216 512 512-229.216 512-512 512zm0-960c-247.024 0-448 200.976-448 448s200.976 448 448 448 448-200.976 448-448-200.976-448-448-448zM351.503 480.175c35.264 0 63.84 28.592 63.84 63.824s-28.576 63.824-63.84 63.824c-35.28 0-63.84-28.591-63.84-63.824s28.56-63.824 63.84-63.824zm320 0c35.264 0 63.84 28.592 63.84 63.824s-28.576 63.824-63.84 63.824c-35.28 0-63.84-28.591-63.84-63.824s28.56-63.824 63.84-63.824z" />
      <glyph glyph-name="disc" unicode=""
        d="M512 960C229.216 960 0 730.784 0 448S229.216-64 512-64s512 229.216 512 512-229.216 512-512 512zm448-512c0-66.32-14.593-129.263-40.56-185.935L636.222 413.617c3.025 10.976 4.785 22.464 4.785 34.384 0 71.248-57.744 129.008-129.008 129.008-14.624 0-28.624-2.544-41.712-7.025L300.672 842.896C363.664 876.736 435.616 896 512 896c247.024 0 448-200.976 448-448zm-448.001 64.994c35.84 0 65.008-29.151 65.008-65.008s-29.168-64.992-65.008-64.992-64.992 29.168-64.992 65.008 29.152 64.992 64.992 64.992zM246.575 808.627l170.177-273.84c-.752-.832-1.536-1.648-2.288-2.513l-283.168 151.52c30.208 48.577 69.392 90.977 115.279 124.833zM64 448.003c0 63.68 13.44 124.256 37.504 179.168l284.368-152.16c-1.857-8.72-2.881-17.727-2.881-27.008 0-71.248 57.744-129.008 129.008-129.008 12.4 0 24.353 1.84 35.696 5.104L717.887 50.307C656.207 18.259 586.223.003 512 .003c-247.024 0-448 200.976-448 448zm708.447-364.16L602.943 356.53c.496.496.96 1.024 1.456 1.536l284.288-152.144a452.058 452.058 0 00-116.24-122.08z" />
      <glyph glyph-name="cursor-move" unicode=""
        d="M1016.4 463.36l-8.48 8.08c-.16.16-.335.224-.528.367L877.648 590.24c-9.344 8.945-24.448 8.945-33.824 0l-5.488-8.064c-9.344-8.945-6.304-23.408 3.04-32.336l76.464-69.344H546.496V853.84l69.343-76.464c8.945-9.344 23.409-12.384 32.336-3.023l8.065 5.471c8.944 9.376 8.944 24.481 0 33.841L543.072 937.632a31.874 31.874 0 01-12.32 13.296l-1.423 1.488c-4.432 4.672-10.336 7.008-16.224 6.976-5.904.032-11.776-2.304-16.288-6.976l-8.096-8.463c-.16-.16-.176-.369-.336-.544L372.881 815.665c-8.927-9.329-8.927-24.449 0-33.825l8.065-5.471c8.928-9.344 23.424-6.32 32.368 3.024l69.152 77.105V480.514H106.162l76.464 69.343c9.344 8.945 12.384 23.409 3.04 32.336l-5.471 8.065c-9.36 8.944-24.497 8.944-33.84 0L22.37 477.074a31.957 31.957 0 01-13.28-12.29l-1.489-1.423C2.914 458.913.593 453.008.626 447.12c-.016-5.905 2.288-11.777 6.976-16.288l8.464-8.096c.16-.16.368-.176.528-.336l127.744-115.504c9.344-8.928 24.464-8.928 33.84 0l5.472 8.064c9.344 8.945 6.304 23.44-3.04 32.369l-77.12 69.152h379.008V39.522l-69.153 77.103c-8.944 9.344-23.44 12.369-32.368 3.025l-8.064-5.472c-8.928-9.376-8.928-24.496 0-33.824L488.417-47.39c.16-.176.192-.368.336-.528l8.095-8.48c4.512-4.673 10.384-7.009 16.288-6.976 5.873-.033 11.777 2.303 16.225 6.975l8.096 8.48c.16.16.224.337.368.529L656.257 82.354c8.944 9.344 8.944 24.464 0 33.824l-8.065 5.488c-8.944 9.344-23.408 6.304-32.335-3.04l-69.344-76.464v374.336H920.48l-77.105-69.152c-9.343-8.944-12.368-23.44-3.024-32.368l5.472-8.064c9.376-8.928 24.496-8.928 33.824 0l127.744 115.504c.176.175.368.19.528.334l8.48 8.096c4.672 4.496 7.008 10.368 6.976 16.288.032 5.857-2.304 11.777-6.975 16.225z" />
      <glyph glyph-name="crop" unicode=""
        d="M992 160l-128-.002v593.904l119.456 119.296c12.48 12.496 12.48 32.769 0 45.265-12.496 12.496-32.769 12.496-45.265 0L819.583 799.999H224v128c0 17.68-14.32 32-32 32s-32-14.32-32-32v-128H32c-17.68 0-32-14.32-32-32 0-17.664 14.32-32 32-32h128v-608c0-2.945.945-5.6 1.681-8.288.32-1.216.256-2.464.72-3.632 3.216-8.065 9.6-14.433 17.664-17.681 1.376-.56 2.88-.495 4.288-.847C186.88 96.911 189.281 96 192 96h608V-32c0-17.68 14.32-32 32-32s32 14.32 32 32V96h128c17.68 0 32 14.32 32 32s-14.32 32-32 32zM755.488 735.998L224 205.214v530.784h531.488zm-486.208-576L800 689.982V159.998z" />
      <glyph glyph-name="credit-card" unicode=""
        d="M928.144 784H95.856c-53.024 0-96-42.976-96-96V208c0-53.024 42.976-96 96-96h832.288c53.024 0 96 42.976 96 96v480c0 53.024-42.976 96-96 96zM95.856 720h832.288c17.664 0 32-14.336 32-32v-64H63.856v64c0 17.664 14.351 32 32 32zm832.288-544H95.856c-17.664 0-32 14.336-32 32v288h896.288V208c0-17.664-14.352-32-32-32z" />
      <glyph glyph-name="chemistry" unicode=""
        d="M810.416-10.72L640.015 190.944v353.504h21.312c17.68 0 32 14.32 32 32s-14.32 32-32 32h-53.312c-17.68 0-32-14.32-32-32V178.624a31.944 31.944 0 018.256-21.44L714.639-.158h-405.28l130.368 157.344a31.944 31.944 0 018.256 21.44v397.823c0 17.68-14.32 32-32 32H362.67c-17.68 0-32-14.32-32-32s14.32-32 32-32h21.312V190.944L213.583-10.72a32.039 32.039 0 01-5.504-34.431 32.001 32.001 0 0129.249-19.01h549.344a32.001 32.001 0 0129.249 19.01c5.12 11.552 2.976 25.055-5.504 34.431zM479.999 640.32c35.264 0 63.84 28.592 63.84 63.84 0 35.216-28.576 63.807-63.84 63.807-35.28 0-63.84-28.591-63.84-63.807 0-35.248 28.56-63.84 63.84-63.84zm208.48 94.992c62.368 0 112.928 50.336 112.928 112.416s-50.544 112.416-112.928 112.416c-62.352 0-112.928-50.336-112.928-112.416s50.576-112.416 112.928-112.416zm-.496 161.025c26.656 0 48.336-21.584 48.336-48.128 0-26.528-21.68-48.128-48.336-48.128s-48.336 21.6-48.336 48.128c.016 26.544 21.68 48.128 48.336 48.128z" />
      <glyph glyph-name="bell" unicode=""
        d="M905.616 248.112c-37.344 45.424-88.48 109.742-88.48 175.358v208.96c0 180.016-134.64 326.479-306.688 326.479-172.08 0-305.664-146.464-305.664-326.479V423.47c0-64.512-55.489-125.487-90.672-172.799-31.649-42.512-56.624-76.096-39.76-109.664 14.832-29.536 51.968-33.328 82.655-33.328h183.36c.048-94.208 76.448-170.576 170.672-170.576 94.24 0 170.641 76.368 170.688 170.576h187.664c19.52 0 65.152 0 80.863 33.2 15.857 33.616-9.52 64.513-44.64 107.232zM511.007 4.142c-57.216 0-103.632 46.352-103.712 103.536h207.424c-.08-57.184-46.464-103.535-103.712-103.535zm358.384 171.665H157.006c-4.896 0-8.991.16-12.367.368 6.592 10.208 16.271 23.248 24.143 33.857 38.993 52.4 104.145 126.368 104.145 213.424v208.96c0 142.464 103.04 258.352 237.521 258.352S749.01 774.88 749.01 632.416v-208.96c0-90.016 60.08-165.248 103.968-218.608 7.392-8.993 16.24-19.76 23.12-28.96-2.033-.048-4.273-.08-6.705-.08z" />
      <glyph glyph-name="badge" unicode=""
        d="M1021.06 120.032L833.798 466.336c19.104 43.36 29.792 91.28 29.792 141.696 0 194.304-157.52 351.808-351.808 351.808-194.336 0-351.84-157.52-351.84-351.808 0-51.632 11.216-100.624 31.184-144.784L3.03 120.192c-6.065-11.024-5.057-24.624 2.527-34.689 7.6-10.032 20.432-14.752 32.687-11.872l160.624 36.848 54.976-153.12c4.288-11.904 15.152-20.16 27.744-21.088.817-.064 1.6-.096 2.368-.096a32.002 32.002 0 0128.192 16.88L475.844 258.03a355.152 355.152 0 0135.92-1.808c11.12 0 22.095.576 32.943 1.6L711.955-47.186a31.984 31.984 0 0130.56-16.527c12.56 1.008 23.376 9.248 27.631 21.088l54.976 153.12 160.624-36.848c12.32-2.975 25.024 1.809 32.624 11.809 7.632 9.984 8.656 23.52 2.688 34.576zM289.778 46.656L249.52 158.817c-5.504 15.248-21.471 24.128-37.28 20.368l-118.8-27.248L228.85 398.913c44.592-60.24 107.952-105.68 181.44-127.793zm-65.553 561.377c0 158.544 129.009 287.536 287.568 287.536 158.544 0 287.536-128.992 287.536-287.536S670.337 320.465 511.793 320.465c-158.576 0-287.568 129.024-287.568 287.568zm587.52-428.847c-15.872 3.744-31.776-5.12-37.28-20.367L733.936 45.843l-123.152 224.56c75.44 22.096 140.337 68.735 185.505 130.735L931.137 151.81z" />
      <glyph glyph-name="anchor" unicode=""
        d="M1021.02 228.592L938.734 379.89c-.128.208-.096.4-.224.593l-5.872 10.143c-3.28 5.617-8.432 9.233-14.192 10.593-5.696 1.408-11.985.544-17.408-2.975l-9.84-6.336c-.193-.113-.305-.288-.497-.416l-145.6-98.32c-10.88-7.008-14.416-21.68-7.936-32.913l6.544-7.2c6.48-11.184 21.265-11.647 32.161-4.64l87.04 59.184c-20.608-166-154.736-293.392-318.96-308.176v641.6h128.048c17.664 0 32 14.336 32 32s-14.336 32-32 32h-129.44c-.24.832-.448 1.664-.768 2.464 57.103 13.28 99.695 64.368 99.695 125.536 0 71.248-57.744 129.008-129.008 129.008-71.248 0-128.992-57.744-128.992-129.008 0-60.817 42.112-111.664 98.736-125.28-.336-.88-.576-1.808-.848-2.72H351.997c-17.665 0-32-14.336-32-32s14.335-32 32-32H479.98V-.557C315.805 14.227 181.82 141.571 161.165 307.555l86.944-59.12c10.88-7.008 25.664-6.544 32.144 4.64l6.56 7.2c6.48 11.216 2.944 25.903-7.951 32.911l-145.6 98.32c-.193.144-.305.32-.48.415l-9.857 6.336a22.16 22.16 0 01-17.408 2.976c-5.744-1.36-10.912-4.992-14.193-10.592l-5.872-10.16c-.112-.193-.096-.385-.209-.593L2.971 228.592c-6.496-11.168-2.945-25.872 7.952-32.896l9.12-3.424c10.88-6.992 24.256-.64 30.752 10.543l47.904 88.975C128.075 87.07 303.803-66.033 511.98-66.033c208.063 0 383.92 153.088 413.36 357.712l47.84-88.864c6.496-11.184 19.888-17.535 30.768-10.543l9.12 3.424c10.896 7.024 14.448 21.728 7.952 32.896zM447.506 833.025c0 35.84 29.153 65.01 64.993 65.01 35.84 0 65.008-29.152 65.008-65.009s-29.152-65.009-65.009-65.009c-35.824.016-64.992 29.168-64.992 65.008z" />
      <glyph glyph-name="wallet" unicode=""
        d="M1023.65 669.52c.464 23.664-5.904 78.848-77.84 98.064L223.394 912.207c-52.944 0-96-43.056-96-96V687.504l-32 .08C42.642 687.36-.238 644.432-.238 591.616V79.808c0-52.945 43.056-96 96-96h832.464c52.945 0 96 43.055 96 96zM191.393 816.207c0 16.72 12.88 30.463 29.216 31.871l706-142.88c.256-.128-5.248-17.935-30.88-17.6H191.393zM960.24 79.79c0-17.664-14.336-32-32-32H95.76c-17.664 0-32 14.336-32 32v511.824c0 17.664 14.336 32 32 32h800.064c31.408 0 64.4 10.704 64.4 31.888V79.79h.016zM191.824 399.502c-35.344 0-64-28.656-64-64s28.656-64 64-64 64 28.656 64 64-28.656 64-64 64z" />
      <glyph glyph-name="vector" unicode=""
        d="M992 288h-32.273v1.616c0 161.92-86.528 303.808-215.663 382.384H904.88c11.087-19.04 31.503-32 55.12-32 35.343 0 64 28.656 64 64s-28.657 64-64 64c-23.632 0-44.033-12.96-55.12-32H608v32c0 17.664-14.336 32-32 32H448c-17.665 0-32-14.336-32-32v-32H119.12C108.032 755.04 87.63 768 64 768c-35.344 0-64-28.656-64-64s28.656-64 64-64c23.631 0 44.032 12.96 55.12 32h160.8C150.784 593.408 64.273 451.536 64.273 289.616V288H32c-17.664 0-32-14.336-32-32V128c0-17.664 14.336-32 32-32h128c17.664 0 32 14.336 32 32v128c0 17.664-14.336 32-32 32h-31.727v1.616c0 178.448 122.464 328.672 287.728 371.392V640c0-17.664 14.335-32 32-32h128c17.664 0 32 14.336 32 32v21.008c165.264-42.736 287.728-192.96 287.728-371.392V288H864c-17.664 0-32-14.336-32-32V128c0-17.664 14.336-32 32-32h128c17.664 0 32 14.336 32 32v128c0 17.664-14.336 32-32 32zM128 160H64v64h64v-64zm416 512h-64v64h64v-64zm416-512h-64v64h64v-64z" />
      <glyph glyph-name="speech" unicode=""
        d="M960 896.4H64.001c-35.344 0-64-28.656-64-64V254.896c0-35.344 28.656-64 64-64h127.536V31.584A31.968 31.968 0 01211.169 2.08a31.99 31.99 0 0112.367-2.496 31.931 31.931 0 0122.432 9.184l185.024 182.128H960c35.343 0 64 28.656 64 64V832.4c0 35.343-28.657 64-64 64zm.001-641.488H404.785L255.537 108v146.912H64.001V832.4h896V254.912zm-736 256.08h576c17.664 0 32 14.336 32 32s-14.336 32-32 32h-576c-17.664 0-32-14.336-32-32s14.336-32 32-32zm0 128h576c17.664 0 32 14.336 32 32s-14.336 32-32 32h-576c-17.664 0-32-14.336-32-32s14.336-32 32-32zm0-256h384c17.664 0 32 14.336 32 32s-14.336 32-32 32h-384c-17.664 0-32-14.336-32-32s14.336-32 32-32z" />
      <glyph glyph-name="puzzle" unicode=""
        d="M512-64.16c-20.288 0-39.378 7.87-53.746 22.19L21.742 394.526c-29.536 29.68-29.536 77.952-.065 107.568l159.904 159.872c9.873 9.872 25.025 12.224 37.44 5.743 12.369-6.464 19.12-20.223 16.69-33.967-1.632-9.153-2.369-16.497-2.369-23.12 0-70 56.976-128.145 127.008-128.145 70.096 0 121.28 58.144 121.28 128.144 0 70.096-51.184 127.088-121.28 127.088-6.56 0-13.87-.751-23.023-2.368-13.872-2.56-27.504 4.32-33.968 16.689-6.464 12.4-4.128 27.568 5.744 37.44l149.088 149.12c28.88 28.752 78.816 28.688 107.567.064L674.91 829.438c22.784 70.816 89.28 122.225 167.536 122.225 97.025 0 175.97-78.976 175.97-176.031 0-78.256-51.377-144.752-122.225-167.504l106.032-105.968c29.6-29.68 29.6-77.952.031-107.601L565.806-41.905C551.375-56.29 532.286-64.161 512-64.161zM174.895 564.782L66.99 456.91c-4.656-4.688-4.656-12.433.063-17.185L503.421 3.341c6.128-6.064 10.945-6.129 17.185.064l436.352 436.384c4.689 4.72 4.689 12.4-.031 17.151L803.023 610.748c-9.632 9.632-12.128 24.32-6.193 36.56s18.848 19.505 32.528 17.84l4.88-.623c2.688-.369 5.377-.817 8.193-.817 61.744 0 111.968 50.193 111.968 111.904 0 61.777-50.224 112.032-111.968 112.032-61.712 0-111.936-50.256-111.936-112.032 0-2.56.4-5.056.752-7.567l.688-5.712a32.003 32.003 0 00-18.03-32.288c-12.161-5.808-26.817-3.312-36.401 6.257L520.56 893.326c-6.128 6.064-10.944 6.129-17.185-.064l-97.12-97.12c83.28-20.624 139.376-95.968 139.376-185.536 0-105.312-79.92-192.128-185.296-192.128-89.536.016-164.848 63.088-185.439 146.304z" />
      <glyph glyph-name="printer" unicode=""
        d="M952.736 705.072H832.017V959.52H191.985V705.072H71.265c-39.312 0-71.312-32-71.312-71.344V199.84c0-39.344 32-71.344 71.311-71.344h120.72V-63.52h640.032v192.016h120.72c39.313 0 71.313 32 71.313 71.344v433.888c0 39.344-32 71.344-71.313 71.344zM255.985 896.513h512.032v-191.44H255.985v191.44zM768.018.48H255.986v352.4h512.032V.48zM960.05 199.841c0-4.08-3.28-7.344-7.313-7.344h-120.72v224.384H191.985V192.513H71.265c-4.032 0-7.312 3.264-7.312 7.344v433.872c0 4.064 3.28 7.345 7.312 7.345h881.472c4.033 0 7.313-3.28 7.313-7.345zm-128.048 376.72h-32c-17.664 0-32-14.336-32-32s14.336-32 32-32h32c17.664 0 32 14.336 32 32s-14.336 32-32 32z" />
      <glyph glyph-name="present" unicode=""
        d="M1024 639.504c0 35.344-28.654 64-63.998 64H850.754c28.272 27.888 46.368 64.447 46.368 109.472 0 55.44-31.84 115.664-121.216 115.664-117.6 0-215.84-125.216-262-195.408-46.192 70.176-147.44 195.392-265.024 195.392-89.376 0-121.216-60.224-121.216-115.664 0-45.008 18.592-81.584 47.44-109.472H64.002c-35.344 0-64-28.656-64-64V447.92h64.56V31.36c0-35.344 28.655-64 64-64h767.68c35.343 0 64 28.656 64 64v416.576h63.76v191.568zm-248.094 225.12c39.568 0 57.216-16.625 57.216-51.665 0-71.088-79.344-109.439-153.968-109.439H570.818c45.471 67.536 125.504 161.104 205.088 161.104zm-527.025-.001c79.6 0 162.655-93.568 208.127-161.088H348.64c-74.624 0-156.976 39.344-156.976 110.432 0 35.024 17.648 50.656 57.217 50.656zm711.12-352.687h-416v127.568h416V511.936zm-896 127.568h416V511.936h-416zm64.56-191.568h351.44V31.376h-351.44zm767.696-416.56H544.001v416.56h352.256V31.376z" />
      <glyph glyph-name="playlist" unicode=""
        d="M33.76 896.24h448c17.664 0 32 14.336 32 32s-14.336 32-32 32h-448c-17.664 0-32-14.336-32-32s14.32-32 32-32zm0-192h448c17.664 0 32 14.336 32 32s-14.336 32-32 32h-448c-17.664 0-32-14.336-32-32s14.32-32 32-32zm480-160c0 17.664-14.336 32-32 32h-448c-17.664 0-32-14.336-32-32s14.336-32 32-32h448c17.664 0 32 14.336 32 32zm499.12 91.216L699.968 948.354c-9.904 9.92-24.656 11.84-36.592 6.016-12.544-4.336-21.616-16.113-21.616-30.128v-708.4c-33.92 25.135-78.432 40.527-127.376 40.527-106.064 0-192.097-71.776-192.097-160.288 0-88.528 86.032-160.336 192.097-160.336 106.128 0 192.096 71.808 192.096 160.336 0 4.016-.368 7.936-.72 11.871v744.096L967.6 590.192c12.496-12.496 32.769-12.496 45.265 0 12.496 12.496 12.496 32.769.015 45.265zM641.76 92.979C639.456 48.482 587.569.164 513.633.164c-75.648 0-128.353 50.56-128.353 95.871 0 45.344 52.704 95.84 128.353 95.84 73.936 0 125.823-48.256 128.127-92.784v-6.113z" />
      <glyph glyph-name="pin" unicode=""
        d="M1014.85 580.336L646.692 950.351c-7.936 7.968-19.376 11.216-30.32 8.496-10.912-2.656-19.6-10.849-22.945-21.568-22.16-71.312-24.72-135.84-7.792-194.688-1.551-1.073-3.04-2.24-4.416-3.617L410.115 567.902c-55.2 25.6-114.544 39.457-173.696 39.457-37.6 0-74.464-5.569-109.567-16.465-10.688-3.344-18.88-12-21.569-22.848a32.01 32.01 0 018.368-30.288l218.976-220.384L26.467 6.334-.157-63.794l64.368 24.88 313.36 311.04L599.395 48.862c6.065-6.128 14.289-9.44 22.689-9.44 2.528 0 5.088.32 7.632.913a32.064 32.064 0 0122.944 21.6c28.976 93.233 20.48 193.345-20.337 283.121l174.704 174.736c.624.624 1.056 1.328 1.632 2 26.368-7.536 53.696-11.568 82.048-11.568 35.216 0 72.56 5.055 110.976 17.008a32.005 32.005 0 0121.57 22.847 32.067 32.067 0 01-8.401 30.256zM603.153 135.854L200.37 541.261c103.376 12.065 214.848-29.6 295.567-110.319 80.32-80.304 119.504-191.296 107.216-295.088zm-2.926 267.6c-16.832 25.727-36.465 50.176-59.024 72.752-22.464 22.464-47.008 42.256-72.96 59.328L612.37 679.63c14.704-25.568 33.664-50 57.007-73.328 23.857-23.84 49.09-43.136 75.601-58.064zM714.626 651.55c-61.536 61.536-85.247 130.129-72.688 212.881l286.912-288.4c-82.656-11.856-151.6 12.896-214.225 75.519z" />
      <glyph glyph-name="picture" unicode=""
        d="M960 880.096H64c-35.184 0-64-28.816-64-64V79.904c0-35.184 28.816-64 64-64h896c35.184 0 64 28.816 64 64v736.192c0 35.184-28.816 64-64 64zm0-800.193l-895.999.001v188.56l256.848 248.912L585.633 252.88c10.912-13.248 30.336-11.568 44.128-1.12l116.88 105.808 210.8-216.384c.8-.8 1.695-1.391 2.56-2.08v-59.2zm.001 150.305L771.97 422.624c-11.408 11.248-29.28 12.4-41.937 2.752l-120.56-105.024-264.943 262.08a32.09 32.09 0 01-22.688 11.6c-8.816.32-17.505-2.56-23.969-8.624l-233.872-227.6v458.288h896V230.208zM736.002 559.872c35.28 0 63.84 28.608 63.84 63.84 0 35.217-28.56 63.825-63.84 63.825s-63.84-28.608-63.84-63.824c0-35.233 28.56-63.841 63.84-63.841z" />
      <glyph glyph-name="map" unicode=""
        d="M993.184 824.992L672.223 958.061l-319.44-126.432L30.815 957.997c-2.752.816-5.44 1.12-7.968 1.12C9.712 959.182 0 949.374 0 934.622v-830c0-17.568 13.872-35.872 30.816-40.56L353.152-63.122 672.16 66.382 993.184-59.746c2.752-.752 5.44-1.12 7.969-1.12 13.12 0 22.847 9.744 22.847 24.495v820.736c0 17.569-13.872 35.89-30.816 40.625zm-609.185-46.131l256 100.304V117.661l-256-101.184v762.384zm-320 94.448l256-94.577V16.972l-256 104.272v752.064zm896-851.314l-256 96.384v759.824l256-110.384V21.995z" />
      <glyph glyph-name="layers" unicode=""
        d="M21.84 658.192l475.09-258.72a32.093 32.093 0 0115.312-3.904 31.99 31.99 0 0115.184 3.84l480.096 258.72c10.464 5.631 16.975 16.624 16.815 28.528a32.088 32.088 0 01-17.504 28.16l-475.12 241.28c-9.055 4.592-19.744 4.624-28.88.064L22.785 714.88c-10.624-5.343-17.44-16.16-17.632-28.064s6.256-22.944 16.687-28.624zm495.313 233.521l406.159-206.271L512.336 463.97 106.16 685.154zm484.187-412.031l-94.974 48.225-68.56-36.976 80-40.624-410.96-221.456-406.191 221.184 85.311 42.88-68.368 37.248-100.32-50.4c-10.624-5.344-17.44-16.16-17.633-28.065s6.256-22.944 16.688-28.624l475.088-258.72a32.092 32.092 0 0115.312-3.903 31.99 31.99 0 0115.184 3.84l480.096 258.72c10.464 5.631 16.975 16.624 16.815 28.528a31.996 31.996 0 01-17.487 28.143zm.01-223.999l-89.966 44.224-68.56-36.976 75.008-36.624L506.856 4.851 100.664 226.035l79.312 35.872-68.368 37.248-94.32-43.408C6.662 250.403-.154 239.587-.346 227.682s6.255-22.944 16.687-28.624L491.43-59.662a32.092 32.092 0 0115.313-3.903 31.99 31.99 0 0115.183 3.84l480.096 258.72c10.464 5.632 16.976 16.624 16.816 28.528a32.002 32.002 0 01-17.488 28.16z" />
      <glyph glyph-name="handbag" unicode=""
        d="M1022.74 17.36l-83.407 503.777c-7.44 65.312-66.977 118.432-132.721 118.432h-70.656v85.28c0 130.16-92.848 236.033-222.976 236.033-130.096 0-224.943-105.872-224.943-236.032v-85.28h-76.672c-65.744 0-125.28-53.12-132.528-117.057L1.557 18.353C-1.42-8.207 3.78-29.15 16.964-43.935 29.396-57.839 47.492-64.91 70.708-64.91h873.568c32.912 0 51.776 13.215 61.84 24.32 9.216 10.208 19.648 28.144 16.624 57.951zM352.049 724.865c0 94.848 66.127 172.031 160.943 172.031 94.816 0 158.977-77.184 158.977-172.031v-85.28h-319.92zM947.168-.446L74.67-.896c-5.504 0-11.008 2.945-9.712 10.689l77.248 504.096c3.84 33.44 35.504 61.68 69.152 61.68h76.689v-72.927c-19.072-11.072-32.048-31.488-32.048-55.137 0-35.344 28.656-64 64-64s64 28.656 64 64c0 23.616-12.928 44-31.952 55.088v72.992H671.95v-72.992c-19.008-11.088-31.952-31.488-31.952-55.088 0-35.344 28.656-64 64-64s64 28.656 64 64c0 23.649-12.976 44.065-32.048 55.153v72.927h70.656c33.664 0 65.313-28.256 69.408-63.44L959.36 8.866c.4-4.095-2.815-9.31-12.191-9.31z" />
      <glyph glyph-name="globe-alt" unicode=""
        d="M929.504 545.584c0 168.784-88.978 321.873-237.97 409.569-15.248 9.008-34.88 3.872-43.808-11.376-8.944-15.216-3.872-34.848 11.376-43.808 129.248-76.032 206.4-208.528 206.4-354.368 0-242.368-175.936-418.288-418.319-418.288-54.192 0-106.784 10.16-156.32 30.16-16.368 6.657-35.056-1.279-41.665-17.663-6.624-16.4 1.28-35.056 17.664-41.665 57.216-23.12 117.872-34.847 180.32-34.847.193 0 .385.015.578.015V.306h-92.928c-18.464 0-33.44-14.304-33.44-31.952s14.976-31.937 33.44-31.937H607.68c18.464 0 33.44 14.304 33.44 31.936 0 17.664-14.976 31.952-33.44 31.952h-96.384v66.8c245.808 28.559 418.208 220.91 418.208 478.478zm-130.13-2.879c0 194.656-157.744 353.408-352.4 353.408-194.688 0-352.465-158.752-352.465-353.408s157.776-351.44 352.465-351.44c194.656 0 352.4 156.784 352.4 351.44zm-640.88 0c0 159.024 129.408 289.408 288.464 289.408 159.024 0 288.4-130.368 288.4-289.408s-129.376-287.44-288.4-287.44c-159.056 0-288.464 128.4-288.464 287.44z" />
      <glyph glyph-name="globe" unicode=""
        d="M1025.02 448c0 272.016-213.663 495.104-482.319 511.023-5.536.608-11.088 1.009-16.72 1.009-1.664 0-3.328-.176-4.992-.224-2.992.048-5.968.224-8.992.224C229.117 960.032-1.026 730.336-1.026 448S229.118-64.032 511.997-64.032c3.024 0 6 .176 9.008.24 1.664-.064 3.328-.24 4.992-.24 5.632 0 11.184.4 16.72 1.009C811.357-47.103 1025.02 175.953 1025.02 448zm-95.451-164.832c-17.632 5.12-61.92 16.24-140.064 25.392 6.464 44.192 10 90.896 10 139.44 0 38.255-2.208 75.343-6.288 111.008 99.008 11.824 142.384 26.72 145.296 27.745l-11.92 33.584c22.24-53.088 34.56-111.296 34.56-172.336 0-58.193-11.28-113.761-31.583-164.833zM285.488 447.999c0 35.808 2.37 70.77 6.705 104.401 51.888-4.08 113.936-7.088 186.863-7.792V322.544c-70.992-.688-131.664-3.568-182.688-7.473-7.04 42.193-10.88 86.88-10.88 132.928zm257.457 443.778c78.464-22.736 145.648-131.695 175.744-276.111-48.368-3.856-106.624-6.673-175.744-7.33v283.44zm-63.886-.783V608.37c-68.368.688-126.88 3.473-176.063 7.232C333.7 758.21 401.428 866.354 479.059 890.994zm0-632.223l.001-253.743c-72.4 22.976-136.192 118.575-169.36 247.023 47.76 3.504 104.096 6.063 169.359 6.72zM542.947 4.228l-.001 254.56c65.952-.623 122.064-3.28 169.217-6.928-32.608-130.128-96-226.416-169.216-247.632zm-.001 318.32l.001 222.032c73.311.688 134.991 3.776 186.191 8a844.922 844.922 0 006.496-104.592c0-46.128-3.712-90.864-10.528-133.12-50.416 4.08-110.8 7.008-182.16 7.68zm371.858 323.52c-9.664-3.008-50.063-14.48-131.023-24.032-18.048 95.952-50.672 177.968-93.12 237.168C788.197 816.82 867.797 740.9 914.805 646.068zM358.82 869.411c-52.208-59.952-94.832-146.161-118.096-248.113-72.48 7.856-115.921 17.089-133.312 21.281 50.72 104.64 141.04 186.752 251.408 226.832zM83.637 582.818c12.32-3.344 58.913-14.941 145.553-24.525a795.86 795.86 0 01-7.68-110.305c0-48.273 4.368-94.721 12.24-138.688-74.4-8.033-120.16-17.649-140.688-22.609-19.44 50.096-30.208 104.447-30.208 161.312 0 46.96 7.312 92.256 20.783 134.815zm37.457-355.166c23.264 4.944 64.912 12.464 126.592 18.928 24.288-89.712 63.792-165.616 111.136-219.968-101.12 36.72-185.296 108.752-237.728 201.04zM690.662 36.82c38.224 53.264 68.48 125.024 87.296 208.801 63.408-7.28 103.216-15.792 123.296-20.864C853.238 141.685 779.399 75.364 690.662 36.82z" />
      <glyph glyph-name="frame" unicode=""
        d="M224 848H32c-17.664 0-32-14.336-32-32V624c0-17.664 14.336-32 32-32s32 14.336 32 32v160h160c17.664 0 32 14.336 32 32s-14.336 32-32 32zm768-544c-17.664 0-32-14.336-32-32V112H800c-17.664 0-32-14.336-32-32s14.336-32 32-32h192c17.664 0 32 14.336 32 32v192c0 17.664-14.336 32-32 32zM224 112H64v160c0 17.664-14.336 32-32 32S0 289.664 0 272V80c0-17.664 14.336-32 32-32h192c17.664 0 32 14.336 32 32s-14.336 32-32 32zm768 736H800c-17.664 0-32-14.336-32-32s14.336-32 32-32h160V624c0-17.664 14.336-32 32-32s32 14.336 32 32v192c0 17.664-14.336 32-32 32z" />
      <glyph glyph-name="folder-alt" unicode=""
        d="M960.16 752h-480l-96 96h-320c-35.344 0-64-28.656-64-64V624h-.304v-64H.16V112c0-35.344 28.656-64 64-64h896c35.344 0 64 28.656 64 64v576c0 35.344-28.656 64-64 64zM64.145 784h290.75l78.624-77.248L453.632 688H960.16v-64h-896v160h-.016zm-.001-672v448h896V112h-896z" />
      <glyph glyph-name="film" unicode=""
        d="M800 687.712h64c17.664 0 32 14.336 32 32v32c0 17.664-14.336 32-32 32h-64c-17.664 0-32-14.336-32-32v-32c0-17.664 14.336-32 32-32zm0-192h64c17.664 0 32 14.336 32 32v32c0 17.664-14.336 32-32 32h-64c-17.664 0-32-14.336-32-32v-32c0-17.664 14.336-32 32-32zm0-192h64c17.664 0 32 14.336 32 32v32c0 17.664-14.336 32-32 32h-64c-17.664 0-32-14.336-32-32v-32c0-17.664 14.336-32 32-32zm0-192h64c17.664 0 32 14.336 32 32v32c0 17.664-14.336 32-32 32h-64c-17.664 0-32-14.336-32-32v-32c0-17.664 14.336-32 32-32zm-640 576h64c17.664 0 32 14.336 32 32v32c0 17.664-14.336 32-32 32h-64c-17.664 0-32-14.336-32-32v-32c0-17.664 14.336-32 32-32zm0-192h64c17.664 0 32 14.336 32 32v32c0 17.664-14.336 32-32 32h-64c-17.664 0-32-14.336-32-32v-32c0-17.664 14.336-32 32-32zm0-192h64c17.664 0 32 14.336 32 32v32c0 17.664-14.336 32-32 32h-64c-17.664 0-32-14.336-32-32v-32c0-17.664 14.336-32 32-32zm0-192h64c17.664 0 32 14.336 32 32v32c0 17.664-14.336 32-32 32h-64c-17.664 0-32-14.336-32-32v-32c0-17.664 14.336-32 32-32zm800 832.384H64c-35.184 0-64-28.816-64-64V15.904c0-35.184 28.816-64 64-64h896c35.184 0 64 28.816 64 64v864.192c0 35.184-28.816 64-64 64zm0-928.193H64v864.192h896V15.903z" />
      <glyph glyph-name="feed" unicode=""
        d="M101.872 629.744c-18.128 0-32.769-14.656-32.769-32.769 0-18.095 14.64-32.767 32.768-32.767 303.008 0 525.344-224.368 525.344-527.36 0-18.096 14.656-32.752 32.769-32.752s32.768 14.656 32.768 32.752c0 340.368-250.528 592.896-590.88 592.896zm.287 327.632c-18.112 0-32.77-14.655-32.77-32.768s14.657-32.768 32.77-32.768c470.175 0 852.671-382.496 852.671-852.656 0-18.096 14.656-32.752 32.769-32.752s32.768 14.656 32.768 32.752c-.015 506.288-411.92 918.192-918.208 918.192zm81.856-656.975c-99.472 0-180.369-81.12-180.369-180.879C3.646 19.81 84.558-61.39 184.014-61.39c99.456 0 180.4 81.184 180.4 180.911 0 99.76-80.928 180.88-180.399 180.88zm-.001-298.43c-64.608 0-117.168 52.752-117.168 117.568s52.56 117.536 117.168 117.536c64.624 0 117.216-52.72 117.216-117.536S248.638 1.97 184.014 1.97z" />
      <glyph glyph-name="earphones-alt" unicode=""
        d="M1023.84 387.456c.096 21.056-3.217 100.496-5.745 123.216-29.12 260.752-240.752 450-503.184 450-273.344 0-494.815-210.624-509.84-489.904-.32-6.096-2.56-49.344-2.72-75.088l-.08-14.32C.958 375.44.158 369.328.158 363.024V148.368c0-46.88 38.128-85.008 85.008-85.008h86.288c46.88 0 85.023 38.128 85.023 85.008v214.64c0 46.88-38.16 85.008-85.024 85.008H85.15a85.65 85.65 0 01-17.184-1.744c.48 10.383.912 18.576 1.025 21.056 13.168 244.784 207.136 429.344 445.92 429.344 229.28 0 414.128-165.344 439.568-393.12 1.072-9.504 2.448-33.664 3.552-57.92-6.193 1.44-12.577 2.385-19.2 2.385H853.55c-46.88 0-85.008-38.128-85.008-85.008V149.345c0-32.368 18.4-60.256 45.09-74.592L608.191-5.903v5.216c0 17.664-14.337 32-32 32h-96c-17.665 0-32-14.336-32-32v-32c0-17.664 14.335-32 32-32h96c.272 0 .512.08.784.08l57.36.224L963.89 64.993c4.32 1.792 7.984 4.464 10.992 7.664 28.848 13.616 48.991 42.736 48.991 76.688V363.01c0 5.216-.64 10.288-1.552 15.233.88 2.944 1.504 6 1.52 9.216zm-938.689-3.44h86.29c11.6 0 21.023-9.408 21.023-21.008V148.352c0-11.6-9.44-21.008-21.025-21.008H85.152c-11.6 0-21.007 9.409-21.007 21.008v214.656c.015 11.6 9.423 21.008 21.007 21.008zm747.377-21.008c0 11.6 9.41 21.008 21.009 21.008h85.28c11.6 0 21.023-9.408 21.023-21.008V149.344c0-11.6-9.44-21.008-21.024-21.008h-85.28c-11.6 0-21.008 9.408-21.008 21.008v213.664z" />
      <glyph glyph-name="earphones" unicode=""
        d="M1023.84 355.44c.096 21.056-3.216 100.497-5.744 123.217-29.12 260.752-240.752 450-503.184 450-273.344 0-494.815-210.624-509.84-489.904-.32-6.096-2.56-49.344-2.72-75.088l-.08-14.32C.96 343.425.16 337.313.16 331.009V52.353c0-46.88 38.128-85.008 85.008-85.008h86.288c46.88 0 85.023 38.128 85.023 85.008v278.64c0 46.88-38.16 85.008-85.024 85.008h-86.32a85.65 85.65 0 01-17.184-1.744c.48 10.383.912 18.591 1.024 21.055C82.16 680.096 276.111 864.656 514.911 864.656c229.28 0 414.128-165.344 439.568-393.12 1.088-9.504 2.464-33.664 3.569-57.92-6.24 1.44-12.609 2.385-19.233 2.385h-85.28c-46.88 0-85.008-38.128-85.008-85.008V53.33c0-46.895 38.128-85.007 85.008-85.007h85.28c46.88 0 85.024 38.127 85.024 85.007v277.664c0 5.216-.64 10.288-1.568 15.216.928 2.944 1.536 6.017 1.569 9.233zm-938.704-3.439h86.288c11.6 0 21.023-9.408 21.023-21.008V52.337c0-11.616-9.44-21.008-21.024-21.008H85.135c-11.6 0-21.008 9.409-21.008 21.008v278.656c.032 11.6 9.44 21.008 21.009 21.008zM959.84 53.345c0-11.6-9.44-21.008-21.023-21.008h-85.28c-11.6 0-21.009 9.408-21.009 21.008v277.648c0 11.6 9.409 21.008 21.008 21.008h85.28c11.6 0 21.024-9.409 21.024-21.008V53.345z" />
      <glyph glyph-name="drop" unicode=""
        d="M510.4-62.704c-193.312 0-350.592 155.12-350.592 345.776 0 222.688 311.632 644.848 324.912 662.72a31.98 31.98 0 0025.473 12.913c11.183.096 19.567-4.593 25.663-12.56 13.408-17.537 328.336-432.226 328.336-663.058 0-190.672-158.72-345.791-353.792-345.791zm.352 935.008c-74.4-105.664-286.943-422.064-286.943-589.217 0-155.376 128.56-281.776 286.592-281.776 159.776 0 289.776 126.4 289.776 281.776.016 173.36-214.145 485.024-289.425 589.217z" />
      <glyph glyph-name="drawar" unicode=""
        d="M1022.98 450.016L905.475 857.105c-3.84 13.872-16.464 23.472-30.848 23.472H139.283c-14.496 0-27.184-9.744-30.944-23.777L.947 470.448c-1.984-7.504-1.009-15.007 1.999-21.536C1.218 443.12.003 437.088.003 430.736V79.424c0-35.343 28.656-64 64-64h896c35.343 0 64 28.657 64 64v351.312c0 1.712-.369 3.329-.496 5.008.832 4.592.816 9.44-.527 14.272zm-859.078 366.56l686.369.001 93.12-321.84H645.055c-1.44-76.816-55.904-129.681-133.057-129.681s-130.624 52.88-132.064 129.68H74.158zM959.999 79.425H64.001v351.312h263.12c27.936-80.432 95.775-129.68 184.879-129.68s157.936 49.248 185.871 129.68h262.128V79.425z" />
      <glyph glyph-name="docs" unicode=""
        d="M768 960H416c-35.344 0-64-28.656-64-64h352V640h256V128H736V64h224c35.344 0 64 28.656 64 64v575.984zm0-256v165.504L933.472 704H768zM64 832c-35.344 0-64-28.656-64-64V0c0-35.344 28.656-64 64-64h544c35.344 0 64 28.656 64 64v575.984L416 832H64zM608 0H64v768h288V512h256V0zM416 576v165.504L581.472 576H416z" />
      <glyph glyph-name="directions" unicode=""
        d="M1017.06 773.936l-99.696 111.343a31.964 31.964 0 01-23.937 10.752H543.171v33.968c0 16.56-14.336 30-32 30s-32-13.44-32-30V896.03H223.363c-17.68 0-32-14.32-32-32V640.367c0-17.68 14.32-32 32-32h255.808v-64.096H130.58a31.963 31.963 0 01-23.936-10.752L6.963 420.207c-10.752-12.128-10.752-30.368 0-42.496l99.68-112.288c6.112-6.847 14.784-9.744 23.936-9.744h348.592V-34c0-16.56 14.336-30 32-30s32 13.44 32 30v289.68h256.464c17.68 0 32 14.32 32 32v224.608c0 17.68-14.32 32-32 32H543.171v64.096h350.256a31.963 31.963 0 0123.937 10.752l99.696 112.32c10.736 12.112 10.736 30.352 0 42.48v.001zM767.647 319.679H144.959l-71.28 79.28 71.28 81.312h622.688V319.679zm111.392 352.688h-623.68v159.664h623.68l71.28-79.344z" />
      <glyph glyph-name="direction" unicode=""
        d="M966.912 661.84l-179.121 192A32.105 32.105 0 01764.367 864h-267.12l-1.008 66c0 16.56-14.336 30-32 30s-30-13.44-30-30l-.975-66H80.496c-17.68 0-32-14.32-32-32V448c0-17.68 14.32-32 32-32h352.336V-34c0-16.56 14.336-30 32-30s32 13.44 32 30v450h267.536c8.88 0 17.344 3.68 23.408 10.16l179.12 192c11.472 12.304 11.472 31.376.016 43.68zM750.463 480H112.495v320h637.968l149.28-160z" />
      <glyph glyph-name="diamond" unicode=""
        d="M1018.72 664.528L878.848 931.97c-8.16 15.6-29.264 28.352-46.848 28.352H510.064c-.351.015-.703.11-1.054.127-.288 0-.56-.113-.849-.128h-316.16c-17.6 0-38.752-12.72-47.024-28.256L5.473 669.777c-8.289-15.536-6.624-39.937 3.631-54.257L489.12-53.632c5.153-7.184 12-10.815 18.832-10.815 6.785 0 13.584 3.536 18.768 10.591L1014.624 610.4c10.384 14.193 12.256 38.544 4.096 54.128zm-76.353 7.843H770.911l68.656 196.608zM575.343 896.323h205.968l-63.888-182.928zm92.895-223.952H370.591l140.672 202.096zm-354.351 30.544L249.71 896.323h198.816zm366.863-94.544L508.718 115.827 345.262 608.371H680.75zM436.926 128.915L92.99 608.371h184.832zm311.616 479.456H933.71l-352.976-480.56zM188.478 877.587l68.096-205.216H79.326z" />
      <glyph glyph-name="cup" unicode=""
        d="M832.56 544.208c-8.336 0-35.202.16-64.306.368l.113 63.968c0 35.344-28.657 64-64 64l-640.496.16c-35.344 0-64-28.656-64-64V127.76c0-106.032 85.967-192 192-192h384.656c106.032 0 191.008 85.968 191.008 192l.064 32.848c29.024-.224 58.608-.4 64.977-.4 105.776 0 191.568 85.04 191.568 191.072-.016 106.048-85.808 192.928-191.584 192.928zM703.533 127.76c0-70.592-56.4-128-127.008-128H191.869c-70.592 0-128 57.408-128 128l-.096 480.944 640.592-.192zm129.026 95.519c-6.352 0-35.888.191-64.863.4l.448 256.815c29.12-.208 56.048-.368 64.4-.368 73.12 0 128.623-54.544 128.623-127.84S905.68 223.278 832.56 223.278zM575.87 736.238c17.664 0 32 14.336 32 32v160c0 17.664-14.336 32-32 32s-32-14.336-32-32v-160c0-17.68 14.336-32 32-32zm-384 0c17.664 0 32 14.336 32 32v160c0 17.664-14.336 32-32 32s-32-14.336-32-32v-160c0-17.68 14.336-32 32-32zm192 0c17.664 0 32 14.336 32 32v160c0 17.664-14.336 32-32 32s-32-14.336-32-32v-160c0-17.68 14.336-32 32-32z" />
      <glyph glyph-name="compass" unicode=""
        d="M733.184 679.728l-313.15-134.64a30.023 30.023 0 01-13.151-13.151L263.427 242.72c-5.872-11.537-3.745-25.537 5.311-34.785a30.222 30.222 0 0121.536-9.024c4.432 0 8.944.976 13.12 3.008L609.12 328.896a29.8 29.8 0 0113.216 12.497l150.88 296.896c6.432 11.6 4.527 26.031-4.656 35.567-9.216 9.536-23.584 11.872-35.376 5.872zM357.857 295.184l87.008 177.681 87.872-109.984zm226.848 105.2l-88.8 111.152 176.784 69.76zM512.001 960c-282.768 0-512-229.232-512-512 0-282.784 229.232-512 512-512 282.784 0 512 229.216 512 512 0 282.768-229.216 512-512 512zm0-961.008c-247.024 0-448 201.984-448 449.01 0 247.024 200.976 448 448 448s448-200.977 448-448-200.976-449.01-448-449.01z" />
      <glyph glyph-name="call-out" unicode=""
        d="M1000.35 188.384c-15.664 11.008-187.059 124.974-208.066 137.806-9.152 5.6-20.32 8.336-32.464 8.336-15.664 0-33.008-4.56-49.935-13.472-16.497-8.688-66.464-37.12-90.913-51.088-21.536 15.12-72.127 53.872-151.84 133.664-79.215 79.184-118.319 130.191-133.535 151.84 13.936 24.432 42.336 74.4 50.976 90.848 16.368 31.008 18.225 61.968 4.944 82.848-12.463 19.68-125.968 191.808-137.68 208-11.024 15.28-30.816 23.536-52.288 23.536-16.944 0-34.912-5.12-50.496-15.968C147.55 943.662-3.043 834.478-1.043 772.382 4.51 597.95 174.013 392.958 315.228 251.694S661.452-59.121 836.572-64.705h1.44c61.312 0 169.089 148.688 170.129 150.16 28.272 40.4 17.968 84.88-7.791 102.929zm-44.209-65.651C915.549 66.509 857.916 7.788 835.357-.613c-120.032 5.632-288.464 111.12-474.88 297.568-186.4 186.464-291.872 354.704-297.44 474.336 8.096 22.624 66.815 80.624 122.527 120.912 4.128 2.848 9.216 4.496 13.968 4.496 1.055 0 1.935-.096 2.624-.224 18-26.16 114.624-172.433 132.16-199.776.064-2.88-.911-10.19-6.4-20.623-5.84-11.12-24.032-43.536-49.904-88.88l-20.128-35.28 23.344-33.248c17.408-24.72 58.816-78.464 140.624-160.288 82.16-82.192 135.712-123.473 160.336-140.784l33.248-23.344 35.28 20.16c34.193 19.537 75.504 42.945 88.945 50 10.784 5.68 18.16 6.129 20.16 6.129.32 0 .593 0 .816-.033 24.496-15.376 173.937-114.592 200.32-132.688.432-2.56.031-8.128-4.816-15.088zM683.899 577.724l275.246 273.572-.88-155.056c-.288-12.944 9.968-24.192 22.912-23.889l16.416.016c12.96.32 23.649 8 23.921 20.928l.656 231.008c0 .223-.864.383-.864.607l1.264 11.712c.128 6.496-1.376 12.288-5.6 16.432-4.128 4.175-9.935 6.72-16.384 6.543l-11.696-.272c-.224 0-.4-.096-.655-.128l-229.472 1.025c-12.928-.289-23.616-10.977-23.92-23.921l-.032-16.416c1.967-15.233 13.935-24.16 26.88-23.872l151.248-.4L638.65 622.987c-12.497-12.496-12.497-32.768 0-45.264 12.496-12.481 32.752-12.481 45.248 0z" />
      <glyph glyph-name="call-in" unicode=""
        d="M1000.35 188.384c-15.664 11.008-187.059 124.974-208.066 137.806-9.152 5.6-20.32 8.336-32.464 8.336-15.664 0-33.008-4.56-49.935-13.472-16.497-8.688-66.464-37.12-90.913-51.088-21.536 15.12-72.127 53.872-151.84 133.664-79.215 79.184-118.319 130.191-133.535 151.84 13.936 24.432 42.336 74.4 50.976 90.848 16.368 31.008 18.225 61.968 4.944 82.848-12.463 19.68-125.968 191.808-137.68 208-11.024 15.28-30.816 23.536-52.288 23.536-16.944 0-34.912-5.12-50.496-15.968C147.55 943.662-3.043 834.478-1.043 772.382 4.51 597.95 174.013 392.958 315.228 251.694S661.452-59.121 836.572-64.705h1.44c61.312 0 169.089 148.688 170.129 150.16 28.272 40.4 17.968 84.88-7.791 102.929zm-44.209-65.651C915.549 66.509 857.916 7.788 835.357-.613c-120.032 5.632-288.464 111.12-474.88 297.568-186.4 186.464-291.872 354.704-297.44 474.336 8.096 22.624 66.815 80.624 122.527 120.912 4.128 2.848 9.216 4.496 13.968 4.496 1.055 0 1.935-.096 2.624-.224 18-26.16 114.624-172.433 132.16-199.776.064-2.88-.911-10.19-6.4-20.623-5.84-11.12-24.032-43.536-49.904-88.88l-20.128-35.28 23.344-33.248c17.408-24.72 58.816-78.464 140.624-160.288 82.16-82.192 135.712-123.473 160.336-140.784l33.248-23.344 35.28 20.16c34.193 19.537 75.504 42.945 88.945 50 10.784 5.68 18.16 6.129 20.16 6.129.32 0 .593 0 .816-.033 24.496-15.376 173.937-114.592 200.32-132.688.432-2.56.031-8.128-4.816-15.088zm-312.305 460.75c4.128-4.176 9.938-6.722 16.386-6.546l11.712.273c.223 0 .383.095.64.11l229.503-1.007c12.912.304 23.616 10.992 23.92 23.937l.016 16.416c-1.952 15.232-13.937 24.16-26.865 23.872l-151.504.4 261.952 261.6c12.497 12.496 12.497 32.769 0 45.265-12.496 12.48-32.752 12.48-45.248 0l-262.672-262.32.88 154.833c.288 12.927-9.967 24.191-22.895 23.887l-16.416-.015c-12.96-.32-23.664-8.017-23.937-20.945l-.656-231.008c0-.223.88-.383.88-.607l-1.28-11.712c-.128-6.496 1.391-12.272 5.584-16.433z" />
      <glyph glyph-name="call-end" unicode=""
        d="M961.696 760.448c0-1.056-.097-1.935-.225-2.623-26.16-18-172.433-114.624-199.776-132.16-2.88-.065-10.191.911-20.623 6.4-11.12 5.84-43.536 24.032-88.88 49.904l-35.28 20.128-33.248-23.344c-24.72-17.408-78.464-58.817-160.288-140.624-82.176-82.16-123.456-135.712-140.768-160.336l-23.344-33.248 20.16-35.28c19.537-34.193 42.945-75.504 50-88.945 5.68-10.784 6.129-18.16 6.129-20.16 0-.32 0-.593-.033-.816C320.16 174.847 220.927 25.407 202.847-.976c-2.56-.432-8.128-.032-15.088 4.816-56.256 40.608-114.96 98.24-123.376 120.8 5.632 120.032 111.12 288.464 297.568 474.88 186.464 186.4 354.72 291.872 474.352 297.44 22.624-8.096 80.624-66.815 120.912-122.527 2.832-4.128 4.48-9.232 4.481-13.985zm62.004.001c0 16.944-5.121 34.914-15.969 50.498-1.055 1.504-108.256 152.096-170.336 150.096-174.432-5.552-379.439-175.056-520.703-316.271C175.46 503.556 5.892 298.548.307 123.428v-1.44C.307 60.676 148.98-47.1 150.451-48.14c40.4-28.289 84.881-17.968 102.945 7.776C264.404-24.7 378.372 146.692 391.204 167.699c5.6 9.152 8.336 20.32 8.336 32.464 0 15.664-4.576 33.008-13.473 49.935-8.687 16.496-37.119 66.464-51.086 90.912 15.12 21.537 53.872 72.128 133.664 151.84 79.183 79.216 130.19 118.32 151.84 133.535 24.431-13.935 74.399-42.335 90.847-50.975 31.008-16.368 61.968-18.225 82.848-4.945 19.68 12.464 189.808 125.968 206 137.68 15.28 11.056 23.52 30.848 23.52 52.304z" />
      <glyph glyph-name="calculator" unicode=""
        d="M960 960.096H64c-35.184 0-64-28.816-64-64V-.096c0-35.184 28.816-64 64-64h896c35.184 0 64 28.816 64 64v896.192c0 35.184-28.816 64-64 64zM960-.097H64v896.192h896V-.097zM224 607.695h64v-64c0-17.664 14.336-32 32-32s32 14.336 32 32v64h64c17.664 0 32 14.336 32 32s-14.336 32-32 32h-64v64c0 17.664-14.336 32-32 32s-32-14.336-32-32v-64h-64c-17.664 0-32-14.336-32-32s14.336-32 32-32zm209.136-238.847c-12.496 12.496-32.752 12.497-45.248.001L320 300.977l-67.887 67.872c-12.496 12.496-32.752 12.496-45.264 0-12.496-12.496-12.496-32.769 0-45.265l67.872-67.872-67.872-67.872c-12.496-12.496-12.496-32.768 0-45.264s32.752-12.497 45.264 0L320 210.432l67.888-67.872c12.496-12.496 32.752-12.496 45.248 0s12.496 32.768 0 45.264l-67.872 67.873 67.872 67.872c12.496 12.511 12.496 32.767 0 45.279zM608 607.696h192c17.664 0 32 14.336 32 32s-14.336 32-32 32H608c-17.664 0-32-14.336-32-32s14.336-32 32-32zm0-320h192c17.664 0 32 14.336 32 32s-14.336 32-32 32H608c-17.664 0-32-14.336-32-32s14.336-32 32-32zm0-128h192c17.664 0 32 14.336 32 32s-14.336 32-32 32H608c-17.664 0-32-14.336-32-32s14.336-32 32-32z" />
      <glyph glyph-name="bubbles" unicode=""
        d="M424.816 280.656c230.944 0 409.902 131.903 407.15 327.631 0 173.184-183.216 311.632-414.16 311.632C186.83 919.919-.353 781.471-.353 608.287c0-107.872 52.912-222.88 163.408-279.376 0-.656-.192-1.152-.192-1.872 0-46.88-39.025-111.152-54.4-137.664h.064c-1.216-2.88-1.952-6-1.952-9.344 0-13.12 10.576-23.664 23.696-23.664 1.935 0 5.088.4 6.223.4.32 0 .433 0 .4-.095 81.665 13.344 202.257 105.248 220.129 127.024 18.336-2.72 30.72-3.152 46.08-3.152 6.528.016 13.473.112 21.713.112zm-94.129 68.879l-40.977-34.032c-9.504-10.976-50.8-45.44-86.351-67.808 21.648 61.68 20.704 81.216 20.704 81.216l3.008 39.152-34.88 17.808c-88.672 45.344-128.528 139.744-128.528 222.4 0 137.664 158.864 247.632 354.16 247.632 195.28 0 350.16-109.968 350.16-247.632-.609-152.608-145.872-264.624-341.152-264.624 0 0-29.808-1.152-60.4 3.376zm693.643.272c0 86.736-33.887 152.881-118.446 202.513-2.064-23.072-8.64-47.824-15.793-69.568 54.656-37.777 70.256-76.56 70.256-132.944 0-69.025-32.16-119.09-106.912-157.345l-31.84-15.808s3.312-82 8.224-102.752c-62.448 45.776-83.905 84-83.905 84l-33.664-5.184c-13.311-1.935-49.311-1.967-49.311-1.967-86.944 0-151.376 20.72-206.336 63.744 14.928.912-89.185.88-91.505-1.153 63.568-77.631 167.473-126.592 297.84-126.592 7.089 0 13.089-.064 18.72-.064 13.28 0 24 .368 39.84 2.688C736.987 70.591 823.723-12.129 894.314-23.633c-.032.065.064.065.368.065.944 0 3.68-.336 5.344-.336 11.344 0 20.496 9.12 20.496 20.464 0 2.88-.656 5.6-1.68 8.063h.064c-13.28 22.88-34.128 89.744-34.128 130.256 0 .624-.192 1.056-.192 1.632 95.504 48.832 139.744 120.08 139.744 213.296z" />
      <glyph glyph-name="briefcase" unicode=""
        d="M960.016 768.528H704.415v62c0 52.944-43.056 96-96 96H415.983c-52.944 0-96-43.056-96-96v-62H64.015c-35.184 0-64-28.816-64-64V480.272h-.032v-64h.032V33.456c0-35.184 28.816-64 64-64h896c35.184 0 64 28.816 64 64v671.072c0 35.184-28.816 64-64 64h.001zm-576.033 62c0 17.664 14.336 32 32 32h192.432c17.664 0 32-14.336 32-32v-62H383.983zm-319.967-126h896V480.272H607.648v32.752c0 35.28-28.72 64-64 64h-63.745c-35.28 0-64-28.72-64-64v-32.752H64.017v224.256zm479.679-352.656h-63.809v161.152h63.745zm-479.68-318.4v382.816h351.872v-64.4c0-35.281 28.72-64 64-64h63.744c35.28 0 64 28.719 64 64v64.4h352.368V33.472H64.015z" />
      <glyph glyph-name="book-open" unicode=""
        d="M952.08 958.448L529.039 843.856c-10.752-2.88-34.096-2.848-44.815.16L72.08 958.224c-36.785 10.128-72.416-16.4-72.416-54.272V125.84c0-32.096 24.335-62.785 55.311-71.409l412.16-114.224c11.025-3.055 25.217-4.751 39.937-4.751 10.095 0 25.007.784 38.72 4.528L968.814 54.576c31.056 8.4 55.504 39.024 55.504 71.248v778.128c.016 37.84-35.616 64.464-72.24 54.496zM479.999 3.057L71.071 116.113c-3.088.847-7.408 6.496-7.408 9.712v768.032L467.135 782.32c3.904-1.088 8.288-1.936 12.864-2.656V3.057zm480.336 122.767c0-3.152-5.184-8.655-8.256-9.503L544 5.793v775.92c.592.144 1.2.224 1.792.384L960.32 894.225v-768.4h.016zM641.999 593.697c2.88 0 5.81.367 8.69 1.184l223.935 63.024c17.025 4.816 26.945 22.465 22.16 39.473s-22.56 26.88-39.472 22.16l-223.936-63.025c-17.024-4.816-26.944-22.464-22.16-39.472 3.968-14.128 16.815-23.344 30.783-23.344zm.002-192.001c2.88 0 5.81.368 8.69 1.185l223.935 63.024c17.025 4.816 26.945 22.465 22.16 39.473-4.783 17.008-22.56 26.88-39.472 22.16l-223.936-63.025c-17.024-4.816-26.944-22.464-22.16-39.457 3.968-14.127 16.815-23.36 30.783-23.36zm.002-192c2.88 0 5.81.368 8.69 1.185l223.935 63.024c17.025 4.816 26.945 22.465 22.16 39.473s-22.56 26.88-39.472 22.16L633.38 272.513c-17.024-4.816-26.944-22.464-22.16-39.472 3.968-14.113 16.815-23.345 30.783-23.345zM394.629 656.513l-223.934 63.025c-16.912 4.72-34.688-5.152-39.473-22.16s5.12-34.656 22.16-39.473l223.937-63.024a31.827 31.827 0 018.687-1.184c13.968 0 26.815 9.215 30.783 23.343 4.784 16.993-5.12 34.657-22.16 39.473zm.002-191.999l-223.934 63.025c-16.912 4.72-34.689-5.152-39.473-22.16s5.12-34.656 22.16-39.472l223.936-63.025a31.827 31.827 0 018.688-1.184c13.968 0 26.815 9.215 30.783 23.343 4.784 16.993-5.12 34.657-22.16 39.473zm.002-191.999L170.699 335.54c-16.912 4.72-34.689-5.152-39.473-22.16s5.12-34.656 22.16-39.472l223.936-63.025a31.827 31.827 0 018.688-1.184c13.968 0 26.815 9.215 30.783 23.343 4.784 17.008-5.12 34.657-22.16 39.473z" />
      <glyph glyph-name="basket-loaded" unicode=""
        d="M1015.66 676a31.822 31.822 0 01-25.999 13.502h-99.744L684.78 864.334c-24.976 24.976-65.52 25.008-90.495 0L392.638 689.502h-82.096l-51.408 177.28c-20.16 69.808-68.065 77.344-87.713 77.344H34.333c-17.568 0-31.776-14.224-31.776-31.776s14.223-31.775 31.775-31.775h137.056c4.336 0 17.568 0 26.593-31.184l176.848-649.936c3.84-13.712 16.336-23.183 30.592-23.183h431.968c13.408 0 25.376 8.4 29.904 21.024l152.256 449.68c3.504 9.744 2.048 20.592-3.888 29.024zM639.537 819.07l152.032-129.584H487.457zm175.488-579.263H429.538L328.386 625.935h616.096zm-63.023-127.936c-44.192 0-80-35.808-80-80s35.808-80 80-80 80 35.808 80 80-35.808 80-80 80zm-288 0c-44.192 0-80-35.808-80-80s35.808-80 80-80 80 35.808 80 80-35.808 80-80 80z" />
      <glyph glyph-name="basket" unicode=""
        d="M1015.66 676a31.82 31.82 0 01-25.998 13.502H310.526l-51.408 177.28c-20.16 69.808-68.065 77.344-87.713 77.344H34.333c-17.569 0-31.777-14.224-31.777-31.776s14.224-31.775 31.776-31.775h137.056c4.336 0 17.568 0 26.593-31.184l176.848-649.936c3.84-13.712 16.336-23.183 30.591-23.183h431.968c13.409 0 25.376 8.4 29.905 21.024l152.256 449.68c3.504 9.744 2.048 20.592-3.888 29.024zM815.026 239.806H429.539L328.387 625.934h616.096zM752.003 111.87c-44.192 0-80-35.808-80-80s35.808-80 80-80 80 35.808 80 80-35.808 80-80 80zm-288 0c-44.192 0-80-35.808-80-80s35.808-80 80-80 80 35.808 80 80-35.808 80-80 80z" />
      <glyph glyph-name="bag" unicode=""
        d="M864 801.296H672.815v61.376c0 52.944-43.056 96-96 96H449.183c-52.944 0-96-43.056-96-96v-61.376H159.999c-35.344 0-64-28.656-64-64V1.328c0-35.344 28.656-64 64-64h704c35.344 0 64 28.656 64 64v735.968c0 35.344-28.656 64-64 64H864zm-446.816 61.376c0 17.664 14.336 32 32 32h127.632c17.664 0 32-14.336 32-32v-61.376H417.184v61.376zM864 1.328H160v735.968h193.184v-65.84s-.848-31.967 31.809-31.967c36 0 32.192 31.967 32.192 31.967v65.84h191.632v-65.84s-2.128-32.128 31.872-32.128c32 0 32.128 32.128 32.128 32.128v65.84h191.184V1.328z" />
      <glyph glyph-name="action-undo" unicode=""
        d="M990.064 17.664c-.336 0-.72 0-1.088.031-16.192.529-26.4 13.088-27.776 29.216C960.112 58.783 927.232 346 478.944 345.695V162.031c0-12.368-7.12-23.664-18.336-28.944-11.088-5.312-24.432-3.68-33.968 4.224L11.664 481.087a31.864 31.864 0 00-11.68 24.784c.032 9.6 4.335 18.687 11.776 24.752l414.96 340.56c9.568 7.807 22.784 9.311 33.936 4.095 11.153-5.311 18.288-16.56 18.288-28.91V666.734c185.968-5.904 330.992-65.712 424.336-174.976 151.936-177.776 118.031-436.16 116.432-446.912-2.368-15.664-13.872-27.183-29.648-27.183zm-543.12 392.527l.063.001C767.23 410 889.599 301.872 959.47 206.383c-10.224 76.496-40.064 168.72-105.008 244.031-86.336 100.096-225.44 152.848-407.535 152.848-17.68 0-32 14.32-32 32v143.776L82.496 505.678l332.432-275.904v148.4a31.953 31.953 0 009.408 22.656c6 5.985 14.128 9.36 22.608 9.36z" />
      <glyph glyph-name="action-redo" unicode=""
        d="M33.935 17.664c.336 0 .72 0 1.088.031 16.193.529 26.4 13.088 27.777 29.216C63.888 58.783 95.775 346 544.048 345.695l1.008-183.664c0-12.368 7.12-23.664 18.335-28.944 11.088-5.312 24.432-3.68 33.968 4.224l414.976 343.776a31.864 31.864 0 0111.681 24.784c-.032 9.6-4.336 18.687-11.776 24.752l-414.96 340.56c-9.569 7.807-22.785 9.311-33.937 4.095-11.152-5.311-18.288-16.56-18.288-28.91l-1.008-179.633c-185.952-5.887-329.968-65.712-423.328-174.96C-31.217 314 2.69 55.615 4.287 44.863c2.368-15.68 13.872-27.199 29.649-27.199zm543.121 392.527h-.063c-320.208-.192-442.591-108.32-512.464-203.824 10.224 76.496 40.064 168.72 105.008 244.031 86.336 100.096 225.44 152.848 407.536 152.848 17.68 0 32 14.32 32 32v143.776l332.433-273.344-332.448-275.904v148.4a31.953 31.953 0 01-9.409 22.656 31.96 31.96 0 01-22.592 9.36z" />
      <glyph glyph-name="wrench" unicode=""
        d="M1006.37 744.064c-10.784 4.976-23.582 3.088-32.558-4.848L812.5 594.32 666.868 743.728 811.06 910.256c7.84 9.056 9.745 21.536 4.865 32.512s-15.664 17.695-27.52 17.695h-8.69c-89.12 0-242.976-7.664-311.663-77.343l-13.857-13.76c-73.28-74.768-86.288-197.376-47.68-290.576L37.236 201.888c-49.791-50.48-49.791-132.32 0-182.816l45.073-45.697c24.895-25.232 57.535-37.856 90.175-37.856 32.624 0 65.263 12.624 90.143 37.856l374.72 377.728c35.44-19.152 84-31.664 124.784-31.664 65.376 0 127.344 26.369 174.527 74.256l13.664 13.84c74.609 75.648 73.456 237.297 73.792 308.417.033 12.096-6.927 23.088-17.743 28.112zM905.666 450.992l-11.873-13.871c-35.744-36.273-82.496-53.648-131.664-53.648-24.32 0-57.088 4.576-79.216 13.792-20 8.303-38.576 20.288-55.2 35.423L217.537 19.072C205.505 6.85 189.505.13 172.48.13s-33.04 6.72-45.088 18.943l-45.055 45.68c-24.865 25.216-24.865 66.224-.017 91.44l400.784 408.863c-13.44 19.569-22.593 40.897-28.049 62.977h-.015c-15.424 62.384-6.432 148.607 42.016 198.048L510.848 840c41.552 42.16 149.456 54.624 209.2 58.304l-117.36-135.536c-10.496-12.128-9.967-30.4 1.216-41.872L789.44 530.56c11.248-11.584 29.44-12.256 41.553-1.52L961.6 646.672c-3.888-63.36-16.192-155.376-55.935-195.68z" />
      <glyph glyph-name="umbrella" unicode=""
        d="M1024.32 450.416c0-17.664-14.29-31.984-31.97-31.984H543.47V94.24c0-87.153-70.912-158.08-158.096-158.08S227.264 7.087 227.264 94.24c0 17.664 14.32 31.984 31.984 31.984s31.984-14.32 31.984-31.984c0-51.905 42.224-94.128 94.16-94.128 51.92 0 94.16 42.223 94.16 94.128v324.192H31.662C14 418.432-.32 432.767-.32 450.416c0 247.296 180.912 404.112 479.856 414.48v62.976c0 17.664 14.32 31.967 31.984 31.967 17.68 0 31.968-14.32 31.968-31.968v-62.976c299.008-10.352 480.832-167.184 480.833-414.479zm-65.17 31.968c-15.776 200.528-178.896 319.119-447.648 319.119S80.606 682.911 64.847 482.399h894.304v-.016z" />
      <glyph glyph-name="trash" unicode=""
        d="M896.8 800.976l-225.277-.001v87.264c0 40.528-33.008 72.496-73.536 72.496H426.003c-40.528 0-73.52-31.968-73.52-72.496v-87.264h-225.28c-17.665 0-32-14.336-32-32s14.335-32 32-32h44.015l74.24-739.92c3.104-34.624 32.608-61.776 67.136-61.776h398.8c34.528 0 64 27.152 67.088 61.472l74.303 740.24h44.016c17.68 0 32 14.336 32 32s-14.32 31.985-32 31.985zm-480.318 87.262c0 5.232 4.271 9.505 9.52 9.505h171.984c5.248 0 9.536-4.273 9.536-9.505v-87.264h-191.04zM714.77 2.798c-.16-1.777-2.256-3.536-3.376-3.536h-398.8c-1.12 0-3.232 1.744-3.425 3.84l-73.632 733.856H788.45z" />
      <glyph glyph-name="tag" unicode=""
        d="M1023.98 543.728l-.001 338.367c0 42.944-34.944 77.904-77.872 77.904H600.73c-21.68 0-54.496 0-75.92-21.44L18.875 432.607c-12.16-12.16-18.88-28.304-18.88-45.487 0-17.216 6.689-33.376 18.849-45.536l386.8-386.72c12.112-12.176 28.272-18.865 45.456-18.865s33.36 6.689 45.487 18.849l505.952 505.968c21.696 21.648 21.569 52.816 21.441 82.912zm-66.685-37.666L450.878.126 64.126 387.342l505.392 505.504c5.088 3.152 23.408 3.152 30.992 3.152l14.4-.048 331.2.048c7.665 0 13.873-6.24 13.873-13.904V543.47c.064-12.176.129-32.544-2.688-37.408zM768.014 831.999c-70.689 0-128-57.312-128-128s57.312-128 128-128 128 57.312 128 128-57.312 128-128 128zm0-192c-35.344 0-64 28.656-64 64s28.656 64 64 64 64-28.656 64-64-28.656-64-64-64z" />
      <glyph glyph-name="support" unicode=""
        d="M512 960C229.232 960 0 730.768 0 448S229.232-64 512-64s512 229.232 512 512-229.232 512-512 512zm128-82.976c144.224-42.992 257.648-156.8 300.704-301.023H733.136A257.472 257.472 0 01640 669.057zm63.633-429.232c0-105.936-85.792-191.808-191.632-191.808s-191.632 85.872-191.632 191.808 85.808 191.823 191.632 191.823 191.632-85.888 191.632-191.823zm-255.632 443.28c20.912 2.992 42.256 4.624 64 4.624 21.727 0 43.088-1.632 64-4.624V695.264c-20.48 5.296-41.856 8.4-64 8.4s-43.504-3.104-64-8.4v195.808zm-64-14.048V669.056c-38.56-22.384-70.72-54.544-93.136-93.056H83.297c43.04 144.224 156.48 258.031 300.704 301.024zM64.305 447.841c0 21.824 1.855 43.169 4.88 64.161h195.392c-5.312-20.512-8.24-41.983-8.24-64.176 0-22.064 2.912-43.424 8.16-63.825H69.137c-2.975 20.88-4.832 42.144-4.832 63.84zM384 18.674C239.664 61.682 126.193 175.65 83.201 320.002h207.472c22.432-38.656 54.655-70.945 93.327-93.393V18.673zM576.001 4.627c-20.912-2.992-42.273-4.624-64-4.624-21.744 0-43.088 1.648-64 4.624v195.776c20.496-5.296 41.856-8.4 64-8.4s43.52 3.104 64 8.4V4.627zm64 14.048V226.61c38.656 22.448 70.897 54.736 93.313 93.392h207.472C897.792 175.667 784.322 61.683 640.001 18.675zm119.504 365.327c5.248 20.4 8.16 41.76 8.16 63.825 0 22.193-2.928 43.664-8.256 64.176h195.408c3.008-20.992 4.88-42.336 4.88-64.16 0-21.697-1.84-42.977-4.832-63.841h-195.36z" />
      <glyph glyph-name="size-fullscreen" unicode=""
        d="M685.904 576.816l275.264 273.572-.896-155.072c-.289-12.928 9.967-24.176 22.912-23.888l16.416.016c12.944.304 23.648 8 23.92 20.928l.672 231.008c0 .223-.88.399-.88.623l1.264 11.712c.128 6.496-1.391 12.288-5.584 16.431-4.143 4.176-9.951 6.72-16.4 6.544l-11.696-.272c-.223 0-.399-.08-.64-.113l-229.487 1.008c-12.928-.288-23.632-10.976-23.92-23.92l-.032-16.417c1.967-15.248 13.952-24.16 26.88-23.872l151.248-.4L640.657 622.08c-12.496-12.496-12.496-32.752 0-45.264 12.496-12.48 32.752-12.48 45.247 0zM339.088 319.188L63.825 46.468l.88 154.224c.304 12.944-9.969 24.192-22.897 23.904l-17.423-.032c-12.96-.32-23.649-8-23.921-20.944L-.208-27.388c0-.224.88-.367.88-.623l-1.264-11.68c-.144-6.496 1.376-12.32 5.584-16.433 4.128-4.192 9.952-6.72 16.384-6.56l11.712.288c.223 0 .383.096.64.096l230.495-1.008c12.928.32 23.617 11.009 23.92 23.936l.032 16.432C286.208-7.724 274.223 1.22 261.295.932l-151.247.4L384.32 273.924c12.496 12.497 12.496 32.752 0 45.248s-32.737 12.512-45.233.016zm685.122-346.56l-.672 231.01c-.288 12.944-10.992 20.624-23.92 20.944l-16.416.032c-12.944.289-23.184-10.975-22.912-23.903l.896-155.072-275.28 273.552c-12.496 12.496-32.752 12.496-45.248 0s-12.496-32.752 0-45.248L914.93 1.351l-151.232-.4c-12.928.288-24.912-8.657-26.88-23.872l.032-16.432c.304-12.944 11.008-23.633 23.92-23.936l229.504 1.007c.24 0 .416-.095.64-.095l11.696-.288c6.448-.16 12.272 2.368 16.4 6.56 4.193 4.128 5.696 9.936 5.584 16.432l-1.263 11.68c0 .255.88.399.88.622zm-914.161 922.05l151.264.397c12.928-.288 24.912 8.64 26.88 23.873l-.032 16.431c-.32 12.944-11.01 23.649-23.921 23.921l-230.512-.992c-.256.032-.416.112-.64.112l-11.712.273c-6.431.175-12.271-2.369-16.384-6.544-4.208-4.144-5.727-9.936-5.584-16.432l1.264-11.712c0-.223-.88-.384-.88-.624l.672-231.008c.288-12.928 10.977-20.624 23.921-20.928l17.424-.015c12.928-.288 23.183 10.96 22.895 23.888l-.88 154.224 275.264-272.72c12.48-12.497 32.753-12.497 45.25 0s12.496 32.768 0 45.264z" />
      <glyph glyph-name="size-actual" unicode=""
        d="M383.2 613.2l-.673 231.011c-.288 12.928-10.992 20.624-23.92 20.928l-16.416.015c-12.944.288-23.184-10.975-22.912-23.887l.896-155.248L53.903 949.747c-12.496 12.496-32.752 12.496-45.248 0s-12.496-32.752 0-45.248l265.12-262.608-151.088-.4c-12.928.287-24.912-8.64-26.88-23.873l.032-16.416c.32-12.944 11.009-23.648 23.92-23.936l229.505 1.007c.256-.015.416-.11.64-.11l11.696-.273c6.448-.176 12.272 2.352 16.4 6.545 4.208 4.143 5.712 9.95 5.584 16.431l-1.263 11.712c.015.224.88.4.88.623zm262.783-28.765c4.128-4.176 9.952-6.724 16.4-6.548l11.697.273c.223 0 .383.08.64.112l229.503-1.008c12.928.288 23.617 10.992 23.92 23.937l.032 16.416c-1.967 15.248-13.952 24.16-26.88 23.872l-151.087.4 265.12 262.608c12.496 12.496 12.496 32.752 0 45.248s-32.752 12.496-45.248 0L703.824 686.033l.88 155.232c.303 12.928-9.953 24.176-22.897 23.888l-16.416-.016c-12.96-.304-23.648-8-23.92-20.928l-.673-231.008c0-.223.88-.383.88-.624l-1.264-11.711c-.143-6.497 1.36-12.289 5.569-16.432zM378.016 312.574c-4.144 4.176-9.952 6.705-16.4 6.545l-11.697-.288c-.223 0-.383-.096-.64-.111l-229.52 1.007c-12.927-.303-23.616-10.992-23.92-23.92l-.031-16.431c1.967-15.216 13.952-24.16 26.88-23.857l151.247-.4L8.655-8.497c-12.496-12.496-12.496-32.752 0-45.248 12.497-12.496 32.752-12.496 45.248 0l266.272 264.576-.896-156.08c-.288-12.944 9.968-24.192 22.912-23.904l16.416.032c12.944.32 23.648 8 23.92 20.928l.673 231.008c0 .223-.88.367-.88.607l1.264 12.704c.143 6.496-1.36 12.288-5.569 16.448zm372.046-57.47l151.249.4c12.928-.303 24.912 8.641 26.88 23.857l-.032 16.431c-.32 12.945-11.01 23.633-23.921 23.921H674.734c-.256.016-.416.112-.64.112l-13.696.272c-6.448.176-12.288-4.352-16.4-8.545-4.209-4.143-5.712-9.935-5.585-16.431l1.264-11.697c0-.24-.88-.384-.88-.607l.672-231.008c.288-12.928 10.977-20.608 23.921-20.928l17.424-.032c12.944-.288 23.184 10.976 22.896 23.903l-.88 154.528L970.094-53.744c12.497-12.496 32.752-12.496 45.248 0 12.496 12.496 12.497 32.752 0 45.248z" />
      <glyph glyph-name="shuffle" unicode=""
        d="M402.304 454.144l39.264 55.248-134.304 183.28H2.736v-64h271.488zm516.479 174.528l-77.536-69.535c-9.344-8.945-12.368-23.44-3.025-32.368l5.472-8.065c9.376-8.944 24.496-8.944 33.824 0l127.744 115.504c.176.16.384.193.544.336l8.464 8.096c4.672 4.496 7.008 10.368 6.976 16.288.032 5.872-2.304 11.776-6.976 16.224l-8.464 8.096c-.16.16-.336.225-.544.368L875.534 802.048c-9.36 8.945-24.464 8.945-33.84 0l-5.471-8.064c-9.36-8.944-6.32-23.408 3.023-32.336l76.048-68.976h-231.76l-409.312-576H2.734v-64h304.512l409.328 576zm87.027-521.44c-.16.16-.337.226-.545.37L875.537 226.032c-9.36 8.944-24.464 8.944-33.84 0l-5.471-8.064c-9.36-8.945-6.32-23.409 3.023-32.336l76.336-69.233-199.008.273L602.145 293.68l-39.28-55.248L683.52 52.673l234.944-.288-77.216-69.248c-9.344-8.945-12.368-23.44-3.025-32.368l5.472-8.065c9.376-8.944 24.496-8.944 33.824 0l127.744 115.504c.176.16.384.192.544.336l8.464 8.096c4.672 4.496 7.008 10.368 6.976 16.288.032 5.872-2.304 11.776-6.976 16.224z" />
      <glyph glyph-name="share-alt" unicode=""
        d="M901.84 10.624H69.841v640h257.6l64.72 62.336-1.664 1.664H69.84c-35.344 0-64-28.656-64-64v-640c0-35.344 28.656-64 64-64h832c35.343 0 64 28.656 64 64v500.672l-64-61.088V10.624zm-631.711 256l64.48.001c44.865 254.496 266.545 448 533.889 448 11.215 0 21.855-.096 32.623-.176L783.873 597.217c-12.464-12.496-12.464-32.752 0-45.248 6.255-6.256 14.463-9.376 22.656-9.376s16.336 3.12 22.592 9.376l189.024 194L829.12 940.001c-12.464 12.496-32.72 12.496-45.248 0-12.464-12.496-12.464-32.752 0-45.248l116.176-116.16c-10.033.016-19.968.048-30.208.048-303.056 0-553.567-221.952-599.711-512.017z" />
      </font>
</defs>
</svg>
