<svg xmlns="http://www.w3.org/2000/svg">
  <defs>
    <font id="prefix__FontAwesome5Pro-Regular" horiz-adv-x="512">
      <font-face font-family="Font Awesome 5 Pro Regular" font-weight="400" units-per-em="512"
        panose-1="2 0 5 3 0 0 0 0 0 0" ascent="448" descent="-64" bbox="-0.242977 -64.2656 640.2 448.112"
        underline-thickness="25" underline-position="-51" unicode-range="U+0020-F83E" />
      <glyph glyph-name="glass-martini" unicode=""
        d="M502.05 390.4L280 168.36V-15h64c22.09 0 40-17.91 40-40 0-4.42-3.58-8-8-8H136c-4.42 0-8 3.58-8 8 0 22.09 17.91 40 40 40h64v183.36L9.95 390.4C-11.3 411.66 3.75 448 33.8 448h444.4c30.05 0 45.1-36.34 23.85-57.6zM256 212.24L443.76 400H68.231z" />
      <glyph glyph-name="music" unicode=""
        d="M511.99 80.08c0-.03.01-.05.02-.08 0-.22-.08-.43-.08-.65-.05-2.89-.38-5.63-1-8.22C505.56 31.18 465.37 0 416 0c-53.02 0-96 35.82-96 80s42.98 80 96 80c17.57 0 33.83-4.23 47.99-11.09V277.9l-272-85.9V16c0-.09-.03-.18-.03-.27-.02-3.05-.39-5.92-1.04-8.63C185.55-32.84 145.36-64 96-64 42.98-64 0-28.18 0 16s42.98 80 96 80c17.58 0 33.83-4.23 48-11.1V320c0 14 9.1 26.29 22.39 30.49l304 96c3.24 1.03 6.49 1.51 9.67 1.51 16.97 0 31.93-13.74 31.93-32.01V80.08zM96-16c28.29 0 48 16.86 48 32s-19.71 32-48 32-48-16.86-48-32C48 .87 67.71-16 96-16zm367.99 344.23v65.9L192 308.24v-65.9zM464 79.99c-.01 15.14-19.72 32.01-48 32.01-28.29 0-48-16.86-48-32 0-15.13 19.71-32 48-32 28.28 0 47.99 16.86 48 31.99z" />
      <glyph glyph-name="search" unicode=""
        d="M508.5-20.9c4.7-4.7 4.7-12.3 0-17l-22.6-22.6c-4.7-4.7-12.3-4.7-17 0L347.5 60.9c-2.2 2.3-3.5 5.3-3.5 8.5v13.2C307.5 51.1 260 32 208 32 93.1 32 0 125.1 0 240s93.1 208 208 208 208-93.1 208-208c0-52-19.1-99.5-50.6-136h13.2c3.2 0 6.2-1.2 8.5-3.5zM208 80c88.4 0 160 71.6 160 160s-71.6 160-160 160S48 328.4 48 240 119.6 80 208 80z" />
      <glyph glyph-name="heart" unicode=""
        d="M458.4 383.7c75.3-63.4 64.1-166.601 10.6-221.3L293.6-16.3c-10-10.2-23.3-15.8-37.6-15.8-14.2 0-27.6 5.7-37.6 15.9L43 162.5c-53.6 54.7-64.6 157.9 10.6 221.2 57.8 48.7 147.101 41.3 202.4-15 55.3 56.3 144.6 63.6 202.4 15zm-23.6-187.5c36.2 36.9 43.8 107.7-7.3 150.8-38.7 32.6-98.7 27.9-136.5-10.6l-35-35.7-35 35.7c-37.6 38.3-97.6 43.2-136.5 10.5-51.2-43.1-43.8-113.5-7.3-150.7L252.6 17.5c2.4-2.4 4.4-2.4 6.8 0z" />
      <glyph glyph-name="star" unicode="" horiz-adv-x="576"
        d="M528.1 276.5c26.2-3.8 36.7-36.1 17.7-54.6l-105.7-103 25-145.5c4.5-26.3-23.199-45.9-46.4-33.7L288 8.4 157.3-60.3c-23.2-12.3-50.899 7.4-46.399 33.7l25 145.5-105.7 103c-19 18.5-8.5 50.8 17.7 54.6l146.1 21.3 65.3 132.4c11.8 23.9 45.7 23.6 57.4 0l65.3-132.4zM388.6 135.7l100.601 98-139 20.2-62.2 126-62.2-126-139-20.2 100.6-98-23.7-138.4 124.3 65.3 124.3-65.3z" />
      <glyph glyph-name="user" unicode="" horiz-adv-x="448"
        d="M313.6 144C387.8 144 448 83.8 448 9.6V-16c0-26.5-21.5-48-48-48H48C21.5-64 0-42.5 0-16V9.6C0 83.8 60.2 144 134.4 144c28.8 0 42.5-16 89.6-16s60.9 16 89.6 16zM400-16V9.6c0 47.6-38.8 86.4-86.4 86.4-14.7 0-37.9-16-89.6-16-51.3 0-75 16-89.6 16C86.8 96 48 57.2 48 9.6V-16h352zM224 160c-79.5 0-144 64.5-144 144s64.5 144 144 144 144-64.5 144-144-64.5-144-144-144zm0 240c-52.9 0-96-43.1-96-96s43.1-96 96-96 96 43.1 96 96-43.1 96-96 96z" />
      <glyph glyph-name="film" unicode=""
        d="M488 384c13.3 0 24-10.7 24-24V24c0-13.3-10.7-24-24-24h-8v20c0 6.6-5.4 12-12 12h-40c-6.6 0-12-5.4-12-12V0H96v20c0 6.6-5.4 12-12 12H44c-6.6 0-12-5.4-12-12V0h-8C10.7 0 0 10.7 0 24v336c0 13.3 10.7 24 24 24h8v-20c0-6.6 5.4-12 12-12h40c6.6 0 12 5.4 12 12v20h320v-20c0-6.6 5.4-12 12-12h40c6.6 0 12 5.4 12 12v20h8zM96 76v40c0 6.6-5.4 12-12 12H44c-6.6 0-12-5.4-12-12V76c0-6.6 5.4-12 12-12h40c6.6 0 12 5.4 12 12zm0 96v40c0 6.6-5.4 12-12 12H44c-6.6 0-12-5.4-12-12v-40c0-6.6 5.4-12 12-12h40c6.6 0 12 5.4 12 12zm0 96v40c0 6.6-5.4 12-12 12H44c-6.6 0-12-5.4-12-12v-40c0-6.6 5.4-12 12-12h40c6.6 0 12 5.4 12 12zM384 60v96c0 6.6-5.4 12-12 12H140c-6.6 0-12-5.4-12-12V60c0-6.6 5.4-12 12-12h232c6.6 0 12 5.4 12 12zm0 168v96c0 6.6-5.4 12-12 12H140c-6.6 0-12-5.4-12-12v-96c0-6.6 5.4-12 12-12h232c6.6 0 12 5.4 12 12zm96-152v40c0 6.6-5.4 12-12 12h-40c-6.6 0-12-5.4-12-12V76c0-6.6 5.4-12 12-12h40c6.6 0 12 5.4 12 12zm0 96v40c0 6.6-5.4 12-12 12h-40c-6.6 0-12-5.4-12-12v-40c0-6.6 5.4-12 12-12h40c6.6 0 12 5.4 12 12zm0 96v40c0 6.6-5.4 12-12 12h-40c-6.6 0-12-5.4-12-12v-40c0-6.6 5.4-12 12-12h40c6.6 0 12 5.4 12 12z" />
      <glyph glyph-name="th-large" unicode=""
        d="M0 368c0 26.51 21.49 48 48 48h416c26.51 0 48-21.49 48-48V16c0-26.51-21.49-48-48-48H48C21.49-32 0-10.51 0 16v352zm232 0H54c-3.312 0-6-2.688-6-6V216h184v152zM48 168V22c0-3.312 2.688-6 6-6h178v152H48zM280 16h178c3.312 0 6 2.688 6 6v146H280V16zm184 200v146c0 3.312-2.688 6-6 6H280V216h184z" />
      <glyph glyph-name="th" unicode=""
        d="M464 416c26.5 0 48-21.5 48-48V16c0-26.5-21.5-48-48-48H48C21.5-32 0-10.5 0 16v352c0 26.5 21.5 48 48 48h416zm-266.7-40v-96h117.3v96H197.3zm0-136v-96h117.3v96H197.3zm-40-232v96H40V20c0-6.6 5.4-12 12-12h105.3zm0 136v96H40v-96h117.3zm0 136v96H52c-6.6 0-12-5.4-12-12v-84h117.3zM314.7 8h-.1v96H197.3V8h117.4zM472 8v96H354.7V8H472zm0 136v96H354.7v-96H472zm0 136v96H354.7v-96H472z" />
      <glyph glyph-name="th-list" unicode=""
        d="M0 368c0 26.51 21.49 48 48 48h416c26.51 0 48-21.49 48-48V16c0-26.51-21.49-48-48-48H48C21.49-32 0-10.51 0 16v352zm472-224v96H197.333v-96H472zm0-40H197.333V8H460c6.627 0 12 5.373 12 12v84zM40 240v-96h117.333v96H40zm157.333 40H472v84c0 6.627-5.373 12-12 12H197.333v-96zm-40 96H52c-6.627 0-12-5.373-12-12v-84h117.333v96zM40 104V20c0-6.627 5.373-12 12-12h105.333v96H40z" />
      <glyph glyph-name="check" unicode=""
        d="M435.848 364.534c4.687 4.686 12.284 4.686 16.97 0l28.284-28.284c4.686-4.687 4.686-12.285 0-16.97L181.29 19.465c-4.688-4.685-12.285-4.685-16.97 0L30.897 152.887c-4.686 4.688-4.686 12.285 0 16.972l28.283 28.283c4.688 4.687 12.286 4.687 16.972 0l96.652-96.651z" />
      <glyph glyph-name="times" unicode="" horiz-adv-x="320"
        d="M207.6 192L315.33 84.29c6.23-6.24 6.23-16.35 0-22.58L290.3 36.68c-6.24-6.23-16.35-6.23-22.58 0L160 144.4 52.29 36.67c-6.24-6.229-16.35-6.229-22.58 0L4.68 61.7c-6.23 6.241-6.23 16.35 0 22.581l107.72 107.72L4.68 299.721c-6.23 6.24-6.23 16.35 0 22.58l25.02 25.02c6.24 6.23 16.35 6.23 22.58 0L160 239.602l107.71 107.73c6.24 6.23 16.35 6.23 22.58 0l25.03-25.03c6.23-6.24 6.23-16.35 0-22.58z" />
      <glyph glyph-name="search-plus" unicode=""
        d="M312 252v-24c0-6.6-5.4-12-12-12h-68v-68c0-6.6-5.4-12-12-12h-24c-6.6 0-12 5.4-12 12v68h-68c-6.6 0-12 5.4-12 12v24c0 6.6 5.4 12 12 12h68v68c0 6.6 5.4 12 12 12h24c6.6 0 12-5.4 12-12v-68h68c6.6 0 12-5.4 12-12zM508.5-37.9l-22.6-22.6c-4.7-4.7-12.3-4.7-17 0L347.5 60.9c-2.3 2.3-3.5 5.3-3.5 8.5v13.2C307.5 51.1 260 32 208 32 93.1 32 0 125.1 0 240s93.1 208 208 208 208-93.1 208-208c0-52-19.1-99.5-50.6-136h13.2c3.2 0 6.2-1.3 8.5-3.5L508.5-20.9c4.7-4.7 4.7-12.3 0-17zM368 240c0 88.4-71.6 160-160 160S48 328.4 48 240 119.6 80 208 80s160 71.6 160 160z" />
      <glyph glyph-name="search-minus" unicode=""
        d="M312 252v-24c0-6.6-5.4-12-12-12H116c-6.6 0-12 5.4-12 12v24c0 6.6 5.4 12 12 12h184c6.6 0 12-5.4 12-12zM508.5-37.9l-22.6-22.6c-4.7-4.7-12.3-4.7-17 0L347.5 60.9c-2.3 2.3-3.5 5.3-3.5 8.5v13.2C307.5 51.1 260 32 208 32 93.1 32 0 125.1 0 240s93.1 208 208 208 208-93.1 208-208c0-52-19.1-99.5-50.6-136h13.2c3.2 0 6.2-1.3 8.5-3.5L508.5-20.9c4.7-4.7 4.7-12.3 0-17zM368 240c0 88.4-71.6 160-160 160S48 328.4 48 240 119.6 80 208 80s160 71.6 160 160z" />
      <glyph glyph-name="power-off" unicode=""
        d="M388.5 401.7C457.9 357.7 504 280.2 504 192 504 55.2 393.2-55.7 256.5-56 120-56.3 8.2 55 8 191.6 7.9 280 54 357.701 123.5 401.701c5.8 3.7 13.5 1.8 16.9-4.2l11.8-20.9c3.1-5.5 1.4-12.5-3.9-15.9-55.5-35.6-92.3-97.8-92.3-168.7 0-110.5 89.5-200 200-200s200 89.5 200 200c0 70.9-36.8 133.1-92.3 168.6-5.3 3.4-7 10.4-3.9 15.9l11.8 20.9c3.3 6.1 11.1 7.9 16.9 4.3zM280 172c0-6.6-5.4-12-12-12h-24c-6.6 0-12 5.4-12 12v264c0 6.6 5.4 12 12 12h24c6.6 0 12-5.4 12-12V172z" />
      <glyph glyph-name="signal" unicode="" horiz-adv-x="640"
        d="M208 160c8.84 0 16-7.16 16-16V-48c0-8.84-7.16-16-16-16h-32c-8.84 0-16 7.16-16 16v192c0 8.84 7.16 16 16 16h32zM80 64c8.84 0 16-7.16 16-16v-96c0-8.84-7.16-16-16-16H48c-8.84 0-16 7.16-16 16v96c0 8.84 7.16 16 16 16h32zm256 192c8.84 0 16-7.16 16-16V-48c0-8.84-7.16-16-16-16h-32c-8.84 0-16 7.16-16 16v288c0 8.84 7.16 16 16 16h32zm128 96c8.84 0 16-7.16 16-16V-48c0-8.84-7.16-16-16-16h-32c-8.84 0-16 7.16-16 16v384c0 8.84 7.16 16 16 16h32zm128 96c8.84 0 16-7.16 16-16V-48c0-8.84-7.16-16-16-16h-32c-8.84 0-16 7.16-16 16v480c0 8.84 7.16 16 16 16h32z" />
      <glyph glyph-name="cog" unicode=""
        d="M452.515 211c1.22-12.65 1.22-25.35 0-38l31.844-18.382c9.426-5.441 13.995-16.542 11.177-27.053-11.405-42.532-33.842-80.548-64.059-110.798-7.68-7.688-19.574-9.246-28.984-3.811l-31.786 18.358c-8.569-6.132-23.308-14.653-32.899-19.02v-36.752a24.015 24.015 0 00-17.844-23.206c-41.812-11.121-86.169-11.106-127.93 0-9.847 2.62-17.84 13.016-17.842 23.207v36.753c-9.59 4.366-24.33 12.887-32.899 19.02l-31.785-18.36c-9.41-5.434-21.305-3.876-28.985 3.811-30.216 30.25-52.654 68.267-64.058 110.798-2.819 10.512 1.75 21.613 11.177 27.054l31.843 18.382c-.505 5.231-.915 13.743-.915 19 0 5.256.41 13.768.915 18.999l-31.843 18.383c-9.426 5.441-13.995 16.542-11.177 27.053 11.404 42.533 33.842 80.548 64.058 110.798 7.68 7.688 19.575 9.247 28.985 3.811l31.785-18.358c8.57 6.132 23.309 14.654 32.9 19.02v36.753a24.015 24.015 0 0017.843 23.206c41.813 11.12 86.17 11.107 127.93 0 9.848-2.621 17.841-13.016 17.842-23.207v-36.753c9.59-4.366 24.33-12.888 32.9-19.02l31.785 18.358c9.41 5.435 21.304 3.877 28.984-3.81 30.217-30.25 52.654-68.267 64.059-110.798 2.818-10.512-1.751-21.613-11.177-27.054zm-52.679-63.019c7.634 41.318 7.63 46.736 0 88.036l43.82 25.29c-6.575 17.755-21.739 43.976-33.85 58.528l-43.83-25.308c-31.971 27.387-36.662 30.079-76.167 44.028v50.6c-9.264 1.58-24.41 2.864-33.809 2.864s-24.545-1.283-33.809-2.864v-50.599c-39.508-13.95-44.184-16.632-76.168-44.028l-43.829 25.308a200.18 200.18 0 01-33.85-58.529l43.82-25.289c-7.634-41.318-7.63-46.738 0-88.037l-43.82-25.29c6.575-17.754 21.74-43.975 33.85-58.527l43.83 25.308c31.971-27.386 36.662-30.079 76.167-44.028v-50.6c9.264-1.58 24.41-2.864 33.809-2.864s24.545 1.283 33.809 2.864v50.6c39.51 13.952 44.184 16.632 76.168 44.028l43.829-25.308c12.111 14.552 27.275 40.773 33.85 58.528zM256 288c52.935 0 96-43.065 96-96s-43.065-96-96-96-96 43.065-96 96 43.065 96 96 96zm0-144c26.468 0 48 21.532 48 48 0 26.467-21.532 48-48 48s-48-21.533-48-48c0-26.468 21.532-48 48-48z" />
      <glyph glyph-name="home" unicode="" horiz-adv-x="576"
        d="M570.24 200.59c3.193-2.648 5.785-8.166 5.785-12.315 0-3.21-1.674-7.814-3.735-10.275l-10.23-12.29c-2.648-3.161-8.143-5.726-12.266-5.726-3.206 0-7.805 1.67-10.264 3.726L512 186.33V-.24c-.17-17.494-14.505-31.722-32-31.76H352c-17.615.05-31.95 14.386-32 32v104h-64V0c-.05-17.614-14.386-31.95-32-32H96c-17.615.05-31.95 14.386-32 32v186.31l-27.47-22.56c-2.46-2.056-7.059-3.726-10.265-3.726-4.123 0-9.618 2.566-12.265 5.727l-10.24 12.3C1.7 180.51.03 185.112.03 188.32c0 4.125 2.567 9.622 5.73 12.27L252.13 403c8.604 7.164 24.673 12.977 35.87 12.977s27.265-5.813 35.87-12.977l140.18-115.1v56.22c.065 4.323 3.627 7.853 7.95 7.88h32c4.416 0 8-3.585 8-8v-95.52zM463.85 16l.15 209.79-176 144.56-176-144.619V16.001h96v104c.05 17.614 14.386 31.95 32 32h96c17.615-.05 31.95-14.386 32-32v-104h95.85z" />
      <glyph glyph-name="clock" unicode=""
        d="M256 440c137 0 248-111 248-248S393-56 256-56 8 55 8 192s111 248 248 248zm0-448c110.5 0 200 89.5 200 200s-89.5 200-200 200S56 302.5 56 192 145.5-8 256-8zm61.8 104.4l-84.9 61.7c-3.1 2.3-4.9 5.9-4.9 9.7V332c0 6.6 5.4 12 12 12h32c6.6 0 12-5.4 12-12V190.3l66.8-48.6c5.4-3.9 6.5-11.4 2.6-16.8L334.6 99c-3.9-5.3-11.4-6.5-16.8-2.6z" />
      <glyph glyph-name="road" unicode="" horiz-adv-x="576"
        d="M267.73 256c-7.12 0-12.68 6.17-11.94 13.26l4.6 43.58a8.007 8.007 0 007.96 7.16h39.294c3.974 0 7.538-3.208 7.955-7.16l4.6-43.58c.75-7.09-4.8-13.26-11.93-13.26h-40.54zm-7.37-112c-9.5 0-16.91 8.23-15.91 17.68l5.07 48c.86 8.14 7.72 14.32 15.91 14.32h45.15c8.19 0 15.05-6.18 15.91-14.32l5.07-48c1-9.45-6.41-17.68-15.91-17.68h-55.29zm13.06 208c-4.75 0-8.45 4.12-7.96 8.84l1.69 16a8.006 8.006 0 007.96 7.16h25.785c3.973 0 7.538-3.208 7.955-7.16l1.69-16c.49-4.72-3.21-8.84-7.96-8.84h-29.16zm48.98-240c8.19 0 15.05-6.18 15.9-14.32l8.45-80c1-9.45-6.41-17.68-15.91-17.68h-85.69c-9.5 0-16.91 8.23-15.91 17.68l8.45 80c.86 8.14 7.72 14.32 15.91 14.32h68.8zM173.35 384c5.33 0 9.17-5.12 7.68-10.24L75.38 11.52A15.997 15.997 0 0060.02 0h-44C4.6 0-3.139 11.62 1.25 22.15l148.72 356.93c1.132 2.717 4.436 4.92 7.378 4.92h16.003zm401.4-361.85C579.14 11.62 571.4 0 559.99 0h-44.003c-6.624 0-13.504 5.161-15.357 11.52L394.98 373.76c-1.49 5.12 2.35 10.24 7.68 10.24h16c2.942-.001 6.248-2.205 7.38-4.92z" />
      <glyph glyph-name="download" unicode="" horiz-adv-x="576"
        d="M528 160c26.5 0 48-21.5 48-48V-16c0-26.5-21.5-48-48-48H48C21.5-64 0-42.5 0-16v128c0 26.5 21.5 48 48 48h92.3l-46.1 46.1c-30.3 30.2-8.7 81.9 33.9 81.9h64v112c0 26.5 21.5 48 48 48h96c26.5 0 48-21.5 48-48V288h64c42.7 0 64-51.8 33.9-81.9L435.9 160H528zm-400 80L288 80l160 160H336v160h-96V240H128zM528-16v128H387.8l-65.9-65.9c-18.8-18.7-49.1-18.8-67.9 0L188.1 112H48V-16h480zm-88 64c0 13.3 10.7 24 24 24s24-10.7 24-24-10.7-24-24-24-24 10.7-24 24z" />
      <glyph glyph-name="inbox" unicode="" horiz-adv-x="576"
        d="M567.403 212.358A48.006 48.006 0 00576 184.946V48c0-26.51-21.49-48-48-48H48C21.49 0 0 21.49 0 48v136.946c0 8.31 3.851 20.59 8.596 27.412l105.08 151.053C121.583 374.776 139.236 384 153.08 384H422.92c13.844 0 31.498-9.224 39.404-20.589zM153.081 336L75.168 224h122.498l32-64h116.668l32 64h122.498l-77.913 112H153.08zM528 48v128H408l-32-64H200l-32 64H48V48h480z" />
      <glyph glyph-name="redo" unicode=""
        d="M500 440c6.627 0 12-5.373 12-12V236c0-6.627-5.373-12-12-12H308c-6.627 0-12 5.373-12 12v27.71c0 6.74 5.549 12.157 12.286 11.997l126.39-3.009C403.941 340.718 335.545 388 256 388c-108.338 0-196-87.677-196-196C60 83.662 147.678-4 256-4c50.106 0 95.787 18.754 130.421 49.631 4.748 4.234 12.003 3.947 16.501-.552l19.738-19.738c4.872-4.872 4.631-12.814-.482-17.432C378.202-31.813 319.926-56 256-56 119.165-56 8.214 54.82 8 191.604 7.787 327.992 118.82 439.574 255.207 440c86.581.27 162.868-43.833 207.432-110.853l-2.347 98.568c-.16 6.738 5.258 12.286 11.997 12.286H500z" />
      <glyph glyph-name="sync" unicode=""
        d="M500 440c6.627 0 12-5.373 12-12V236c0-6.627-5.373-12-12-12H308c-6.627 0-12 5.373-12 12v27.71c0 6.74 5.549 12.157 12.286 11.997l126.39-3.009C403.943 340.718 335.546 388 256 388c-94.083 0-172.559-66.128-191.584-154.47-1.195-5.548-6.063-9.53-11.737-9.53H24.103c-7.5 0-13.195 6.807-11.807 14.176C33.933 353.076 134.814 440 256 440c86.256 0 162.212-44.043 206.639-110.861l-2.347 98.575c-.16 6.738 5.258 12.286 11.997 12.286H500zm-12.103-280c7.499 0 13.194-6.807 11.807-14.176C478.067 30.924 377.186-56 256-56 169.744-56 93.788-11.957 49.36 54.861l2.347-98.575C51.867-50.452 46.45-56 39.71-56H12C5.371-56 0-50.627 0-44v192c0 6.627 5.372 12 12 12h192c6.626 0 12-5.373 12-12v-27.71c0-6.74-5.55-12.157-12.287-11.997l-126.39 3.009C108.057 43.282 176.453-4 256-4c94.083 0 172.56 66.127 191.584 154.47 1.195 5.547 6.064 9.53 11.737 9.53h28.577z" />
      <glyph glyph-name="list-alt" unicode=""
        d="M464 416c26.51 0 48-21.49 48-48V16c0-26.51-21.49-48-48-48H48C21.49-32 0-10.51 0 16v352c0 26.51 21.49 48 48 48h416zm-6-400c3.312 0 6 2.688 6 6v340c0 3.312-2.688 6-6 6H54c-3.312 0-6-2.688-6-6V22c0-3.312 2.688-6 6-6h404zm-42 92V84c0-6.627-5.373-12-12-12H204c-6.627 0-12 5.373-12 12v24c0 6.627 5.373 12 12 12h200c6.627 0 12-5.373 12-12zm0 96v-24c0-6.627-5.373-12-12-12H204c-6.627 0-12 5.373-12 12v24c0 6.627 5.373 12 12 12h200c6.627 0 12-5.373 12-12zm0 96v-24c0-6.627-5.373-12-12-12H204c-6.627 0-12 5.373-12 12v24c0 6.627 5.373 12 12 12h200c6.627 0 12-5.373 12-12zm-252-12c0-19.882-16.118-36-36-36s-36 16.118-36 36 16.118 36 36 36 36-16.118 36-36zm0-96c0-19.882-16.118-36-36-36s-36 16.118-36 36 16.118 36 36 36 36-16.118 36-36zm0-96c0-19.882-16.118-36-36-36S92 76.118 92 96s16.118 36 36 36 36-16.118 36-36z" />
      <glyph glyph-name="lock" unicode="" horiz-adv-x="448"
        d="M400 256c26.5 0 48-21.5 48-48V-16c0-26.5-21.5-48-48-48H48C21.5-64 0-42.5 0-16v224c0 26.5 21.5 48 48 48h32v48c0 79.5 64.8 144.2 144.4 144C304 447.8 368 382.2 368 302.6V256h32zm-272 48v-48h192v48c0 52.9-43.1 96-96 96s-96-43.1-96-96zM400-16v224H48V-16h352z" />
      <glyph glyph-name="flag" unicode=""
        d="M336.174 368c35.467 0 73.02 12.691 108.922 28.18C476.736 409.83 512 386.522 512 352.064v-239.92c0-16.195-8.154-31.305-21.713-40.163C463.711 54.617 420.218 32 361.74 32c-68.608 0-112.78 32-161.913 32C143.26 64 109.87 52.72 72 35.443V-48c0-8.837-7.163-16-16-16H40c-8.837 0-16 7.163-16 16v406.438C9.658 366.738 0 382.236 0 400c0 27.569 23.243 49.71 51.202 47.896 22.965-1.49 41.866-19.472 44.48-42.338.178-1.524.321-4.008.321-5.542 0-4.302-1.103-11.103-2.463-15.184C115.958 393.517 142.96 400 174.261 400c68.609 0 112.781-32 161.913-32zM464 112v240c-31.506-14.634-84.555-32-127.826-32-59.911 0-101.968 32-161.913 32-41.437 0-80.477-16.588-102.261-32V88c31.447 14.597 84.465 24 127.826 24 59.911 0 101.968-32 161.913-32 41.437 0 80.478 16.588 102.261 32z" />
      <glyph glyph-name="headphones" unicode=""
        d="M256 416c141.503 0 256-114.52 256-256v-49.713c0-7.784-5.519-17.177-12.32-20.966L479.98 78.344C479.092 17.252 429.302-32 367.999-32h-24c-13.254 0-24 10.745-24 24v176c0 13.255 10.746 24 24 24h24c40.745 0 76.403-21.758 96-54.287V160c0 114.69-93.308 208-208 208S48 274.69 48 160v-22.287C67.598 170.242 103.257 192 144 192h24c13.256 0 24-10.745 24-24V-8c0-13.255-10.744-24-24-24h-24C82.699-32 32.909 17.252 32.022 78.343L12.319 89.32c-6.801 3.788-12.32 13.182-12.32 20.966V160c0 141.503 114.52 256 256 256zM144 144c-35.29 0-64-28.71-64-64s28.71-64 64-64v128zM368 16c35.29 0 64 28.71 64 64s-28.71 64-64 64V16z" />
      <glyph glyph-name="volume-off" unicode="" horiz-adv-x="256"
        d="M231.81 384c12.32 0 24.19-9.51 24.19-24.02V24.02C256 9.52 244.14 0 231.81 0c-5.9 0-11.91 2.18-16.78 7.05L126.06 96H24c-13.26 0-24 10.75-24 24v144c0 13.26 10.74 24 24 24h102.06l88.97 88.95c4.86 4.87 10.87 7.05 16.78 7.05zM208 81.95v220.1L145.94 240H48v-96h97.94z" />
      <glyph glyph-name="volume-down" unicode="" horiz-adv-x="384"
        d="M338.23 268.87c28.24-15.54 45.78-45 45.78-76.87s-17.54-61.32-45.77-76.87c-11.56-6.35-26.18-2.21-32.61 9.45-6.39 11.61-2.16 26.2 9.45 32.61C327.98 164.28 336 177.63 336 192s-8.02 27.72-20.93 34.81c-11.61 6.41-15.84 21-9.45 32.61 6.42 11.61 21.03 15.78 32.61 9.45zM231.81 384c12.32 0 24.19-9.51 24.19-24.02V24.02C256 9.52 244.14 0 231.81 0c-5.9 0-11.91 2.18-16.78 7.05L126.06 96H24c-13.26 0-24 10.75-24 24v144c0 13.26 10.74 24 24 24h102.06l88.97 88.95c4.86 4.87 10.87 7.05 16.78 7.05zM208 81.95v220.1L145.94 240H48v-96h97.94z" />
      <glyph glyph-name="volume-up" unicode="" horiz-adv-x="576"
        d="M338.23 268.88c28.24-15.55 45.78-45.01 45.78-76.88s-17.54-61.32-45.77-76.87c-11.56-6.35-26.18-2.21-32.61 9.45-6.39 11.61-2.16 26.2 9.45 32.61C327.98 164.28 336 177.63 336 192c0 14.38-8.02 27.72-20.93 34.82-11.61 6.41-15.84 21-9.45 32.61 6.42 11.61 21.03 15.78 32.61 9.45zM480 192c0-63.09-32.06-121.09-85.77-155.15-12-7.62-26.61-2.87-33.12 7.41-7.09 11.2-3.78 26.03 7.41 33.12C408.27 102.6 432 145.44 432 192s-23.73 89.41-63.48 114.62c-11.19 7.09-14.5 21.91-7.41 33.12 7.09 11.21 21.93 14.5 33.12 7.41C447.94 313.09 480 255.09 480 192zm-31.65 236.03C528.27 375.58 576 287.33 576 192S528.27 8.43 448.35-44.02c-11.58-7.61-26.47-3.76-33.51 6.95-7.34 11.16-4.22 26.18 6.95 33.5C488.06 39.92 527.61 113.02 527.61 192s-39.55 152.09-105.82 195.57c-11.17 7.33-14.29 22.339-6.95 33.509 7.33 11.19 22.34 14.28 33.51 6.95zM231.81 384c12.32 0 24.19-9.51 24.19-24.02V24.02C256 9.52 244.14 0 231.81 0c-5.9 0-11.91 2.19-16.78 7.05L126.06 96H24c-13.26 0-24 10.75-24 24v144c0 13.26 10.74 24 24 24h102.06l88.97 88.95c4.86 4.87 10.87 7.05 16.78 7.05zM208 81.96v220.09L145.94 240H48v-96h97.94z" />
      <glyph glyph-name="qrcode" unicode="" horiz-adv-x="448"
        d="M0 224v192h192V224H0zm40 152V264h112v112H40zm216 40h192V224H256v192zm152-152v112H296V264h112zM0-32v192h192V-32H0zm40 152V8h112v112H40zm32-32h48V40H72v48zm0 256h48v-48H72v48zm304-48h-48v48h48v-48zm40-136h32V32H320v32h-32v-96h-32v192h96v-32h64v32zm0-160h32v-32h-32V0zm-64 0h32v-32h-32V0z" />
      <glyph glyph-name="barcode" unicode=""
        d="M0 0v384h18V0H0zm26.857.273V384H36V.273h-9.143zM54 .273V384h8.857V.273H54zm44.857 0V384h8.857V.273h-8.857zm36 0V384h17.714V.273h-17.714zm44.857 0V384h8.857V.273h-8.857zm18 0V384h8.857V.273h-8.857zm18 0V384h8.857V.273h-8.857zm35.715 0V384h18V.273h-18zm44.857 0V384h18V.273h-18zm35.999 0V384h18.001V.273h-18.001zm36.001 0V384h18.001V.273h-18.001zm26.857 0V384h18V.273h-18zm45.143 0V384h26.856V.273h-26.856zm35.714 0V384h9.143V.273H476zM494 0v384h18V0h-18z" />
      <glyph glyph-name="tag" unicode=""
        d="M497.941 222.059c18.744-18.744 18.744-49.137 0-67.882L293.823-49.94c-18.745-18.745-49.138-18.744-67.882 0L14.058 161.942C6.298 169.702 0 184.907 0 195.882v204.119c0 26.51 21.49 48 48 48h204.118c10.974 0 26.18-6.3 33.94-14.059zM259.886-15.996L464 188.118 252.118 400H48V195.882zM192 304c0-26.51-21.49-48-48-48s-48 21.49-48 48 21.49 48 48 48 48-21.49 48-48z" />
      <glyph glyph-name="tags" unicode="" horiz-adv-x="640"
        d="M625.941 154.177L421.823-49.941c-18.746-18.745-49.139-18.744-67.882 0l-.36.36L592 188.12 331.397 448h48.72c10.975 0 26.181-6.298 33.94-14.058l211.884-211.883c18.744-18.744 18.744-49.137 0-67.882zm-128 0L293.823-49.941C284.451-59.314 272.166-64 259.882-64s-24.569 4.686-33.94 14.059L14.057 161.942C6.298 169.702 0 184.908 0 195.882V400c0 26.51 21.49 48 48 48h204.118c10.975 0 26.18-6.298 33.94-14.058l211.883-211.883c18.744-18.744 18.744-49.137 0-67.882zM464 188.118L252.118 400H48V195.882L259.886-15.996zM144 352c26.51 0 48-21.49 48-48s-21.49-48-48-48-48 21.49-48 48 21.49 48 48 48z" />
      <glyph glyph-name="book" unicode="" horiz-adv-x="448"
        d="M128 296v32c0 4.4 3.6 8 8 8h208c4.4 0 8-3.6 8-8v-32c0-4.4-3.6-8-8-8H136c-4.4 0-8 3.6-8 8zm8-88c-4.4 0-8 3.6-8 8v32c0 4.4 3.6 8 8 8h208c4.4 0 8-3.6 8-8v-32c0-4.4-3.6-8-8-8H136zM435.1 48.3c-4.2-13-4.2-51.6 0-64.6 7.3-1.4 12.9-7.9 12.9-15.7v-16c0-8.8-7.2-16-16-16H80C35.8-64 0-28.2 0 16v352c0 44.2 35.8 80 80 80h352c8.8 0 16-7.2 16-16V64c0-7.8-5.5-14.2-12.9-15.7zM394 48H80c-17.6 0-32-14.4-32-32 0-17.7 14.3-32 32-32h314c-2.7 17.3-2.7 46.7 0 64zm6 352H80c-17.7 0-32-14.3-32-32V89.3c9.8 4.3 20.6 6.7 32 6.7h320v304z" />
      <glyph glyph-name="bookmark" unicode="" horiz-adv-x="384"
        d="M336 448c26.51 0 48-21.49 48-48V-64L192 48 0-64v464c0 26.51 21.49 48 48 48h288zm0-428.43v374.434a5.996 5.996 0 01-6 5.996H54c-3.312 0-6-2.688-6-6V19.57l144 84z" />
      <glyph glyph-name="print" unicode=""
        d="M400 184c13.25 0 24-10.74 24-24 0-13.25-10.75-24-24-24s-24 10.75-24 24c0 13.26 10.75 24 24 24zm32 88c44.18 0 80-35.82 80-80V64c0-8.84-7.16-16-16-16h-64v-96c0-8.84-7.16-16-16-16H96c-8.84 0-16 7.16-16 16v96H16C7.16 48 0 55.16 0 64v128c0 44.18 35.82 80 80 80v144c0 17.67 13.64 32 30.48 32h221.64c12.73 0 24.94-5.06 33.94-14.06l51.88-51.88c9-9 14.06-21.21 14.06-33.94V272zM128 400V272h256v64h-48c-8.84 0-16 7.16-16 16v48H128zM384-16v64H128v-64h256zm80 112v96c0 17.64-14.36 32-32 32H80c-17.64 0-32-14.36-32-32V96h416z" />
      <glyph glyph-name="camera" unicode=""
        d="M342.7 304l-23.9 64H193.3l-24-64H48V16h416v288H342.7zm-18.4 112c16.7 0 31.6-10.3 37.4-26l14.3-38h88c26.5 0 48-21.5 48-48V16c0-26.5-21.5-48-48-48H48C21.5-32 0-10.5 0 16v288c0 26.5 21.5 48 48 48h88l12.4 32.9c7 18.7 24.9 31.1 44.9 31.1h131zM256 40c-66.2 0-120 53.8-120 120s53.8 120 120 120 120-53.8 120-120S322.2 40 256 40zm0 192c-39.7 0-72-32.3-72-72s32.3-72 72-72 72 32.3 72 72-32.3 72-72 72z" />
      <glyph glyph-name="font" unicode="" horiz-adv-x="448"
        d="M428 17.5c6.6 0 12-5.4 12-12V-20c0-6.6-5.4-12-12-12H308c-6.6 0-12 5.4-12 12V5.5c0 6.6 5.4 12 12 12h29.9L303 117.1H144.4l-34.9-99.6H140c6.6 0 12-5.4 12-12V-20c0-6.6-5.4-12-12-12H20c-6.6 0-12 5.4-12 12V5.5c0 6.6 5.4 12 12 12h25.4L185.299 408c1.7 4.8 6.2 8 11.3 8h54.8c5.1 0 9.6-3.2 11.3-8L402.6 17.5h25.4zM160.2 167.9h127l-54.6 155.5c-6.4 18.4-8.6 34.3-8.6 34.3s-2.9-15.9-8.6-34.3z" />
      <glyph glyph-name="bold" unicode="" horiz-adv-x="384"
        d="M292 204.467c42.025-9.817 76-50.669 76-108.92 0-59.014-36.17-103.434-82.492-119.298C263.932-30.731 242.992-32 218.244-32H28c-6.627 0-12 5.373-12 12V4c0 6.627 5.373 12 12 12h34.142v352H28c-6.627 0-12 5.373-12 12v24c0 6.627 5.373 12 12 12h181.995c32.362 0 56.476-3.173 78.685-13.326 35.536-15.865 61.552-52.67 61.552-100.895 0-42.06-20.126-78.686-58.232-97.313zM125.598 363.966V227.535h90.898c37.474 0 68.57 29.894 69.004 67.367.308 26.519-9.863 49.232-29.182 60.18-12.693 6.346-27.286 8.884-46.323 8.884h-84.397zM260.759 26.38c26.018 10.788 42.517 38.708 42.517 72.34 0 46.323-30.46 76.78-77.416 76.78H125.598V20.035h95.184c12.69 0 27.921 1.268 39.977 6.346z" />
      <glyph glyph-name="italic" unicode="" horiz-adv-x="256"
        d="M244 416c7.6 0 13.2-6.9 11.9-14.3l-4.8-24c-1.1-5.7-6.1-9.7-11.8-9.7h-45.9L125.5 16h41.1c7.6 0 13.3-6.9 11.8-14.3l-4.8-24c-1.1-5.7-6.1-9.7-11.8-9.7H12C4.4-32-1.2-25.1.2-17.7L5 6.3C6.1 12 11.1 16 16.8 16H62l67.9 352H89.4c-7.5 0-13.2 6.9-11.8 14.3l4.8 24c1.1 5.7 6.1 9.7 11.8 9.7H244z" />
      <glyph glyph-name="text-height" unicode=""
        d="M0 308.869v95.13c0 6.628 5.373 12 12 12h296c6.627 0 12-5.372 12-12v-95.13c0-6.627-5.373-12-12-12h-26.747c-6.627 0-12 5.373-12 12v59.13h-82.015V16H236c6.627 0 12-5.372 12-12v-24c0-6.626-5.373-12-12-12H84c-6.627 0-12 5.374-12 12V4c0 6.628 5.373 12 12 12h48.762v352H50.125v-59.13c0-6.627-5.373-12-12-12H12c-6.627 0-12 5.372-12 12zm423.276 103.372c4.731 5.01 12.713 5.014 17.447 0l67.993-72.001c7.167-7.588 1.857-20.24-8.723-20.24H456V64h43.994c10.587 0 15.884-12.66 8.723-20.24l-67.994-72.001c-4.731-5.01-12.713-5.014-17.447 0l-67.993 72c-7.166 7.588-1.857 20.24 8.723 20.24H408v256h-43.994c-10.587 0-15.884 12.66-8.724 20.241z" />
      <glyph glyph-name="text-width" unicode="" horiz-adv-x="448"
        d="M0 308.869v95.13c0 6.628 5.373 12 12 12h424c6.627 0 12-5.372 12-12v-95.13c0-6.627-5.373-12-12-12h-26.747c-6.627 0-12 5.373-12 12v59.13H251.238V176H300c6.627 0 12-5.372 12-12v-24c0-6.626-5.373-12-12-12H148c-6.627 0-12 5.374-12 12v24c0 6.628 5.373 12 12 12h48.761v192H50.124v-59.13c0-6.627-5.373-12-12-12H12c-6.627 0-12 5.372-12 12zM444.241 56.724c5.01-4.732 5.014-12.713 0-17.448L372.24-28.717c-7.588-7.166-20.24-1.856-20.24 8.724V24H96v-43.994c0-10.587-12.66-15.884-20.24-8.724L3.759 39.276c-5.01 4.732-5.014 12.713 0 17.448l72 67.993c7.588 7.166 20.24 1.856 20.24-8.724V72h256v43.994c0 10.587 12.66 15.884 20.241 8.724z" />
      <glyph glyph-name="align-left" unicode="" horiz-adv-x="448"
        d="M288 400v-32c0-6.627-5.373-12-12-12H12c-6.627 0-12 5.373-12 12v32c0 6.627 5.373 12 12 12h264c6.627 0 12-5.373 12-12zM12 228c-6.627 0-12 5.373-12 12v32c0 6.627 5.373 12 12 12h424c6.627 0 12-5.373 12-12v-32c0-6.627-5.373-12-12-12H12zm0-256C5.373-28 0-22.627 0-16v32c0 6.627 5.373 12 12 12h424c6.627 0 12-5.373 12-12v-32c0-6.627-5.373-12-12-12H12zm264 184c6.627 0 12-5.373 12-12v-32c0-6.627-5.373-12-12-12H12c-6.627 0-12 5.373-12 12v32c0 6.627 5.373 12 12 12h264z" />
      <glyph glyph-name="align-center" unicode="" horiz-adv-x="448"
        d="M352 400v-32c0-6.627-5.373-12-12-12H108c-6.627 0-12 5.373-12 12v32c0 6.627 5.373 12 12 12h232c6.627 0 12-5.373 12-12zM12 228c-6.627 0-12 5.373-12 12v32c0 6.627 5.373 12 12 12h424c6.627 0 12-5.373 12-12v-32c0-6.627-5.373-12-12-12H12zm0-256C5.373-28 0-22.627 0-16v32c0 6.627 5.373 12 12 12h424c6.627 0 12-5.373 12-12v-32c0-6.627-5.373-12-12-12H12zm328 184c6.627 0 12-5.373 12-12v-32c0-6.627-5.373-12-12-12H108c-6.627 0-12 5.373-12 12v32c0 6.627 5.373 12 12 12h232z" />
      <glyph glyph-name="align-right" unicode="" horiz-adv-x="448"
        d="M160 368v32c0 6.627 5.373 12 12 12h264c6.627 0 12-5.373 12-12v-32c0-6.627-5.373-12-12-12H172c-6.627 0-12 5.373-12 12zM12 228c-6.627 0-12 5.373-12 12v32c0 6.627 5.373 12 12 12h424c6.627 0 12-5.373 12-12v-32c0-6.627-5.373-12-12-12H12zm0-256C5.373-28 0-22.627 0-16v32c0 6.627 5.373 12 12 12h424c6.627 0 12-5.373 12-12v-32c0-6.627-5.373-12-12-12H12zm160 128c-6.627 0-12 5.373-12 12v32c0 6.627 5.373 12 12 12h264c6.627 0 12-5.373 12-12v-32c0-6.627-5.373-12-12-12H172z" />
      <glyph glyph-name="align-justify" unicode="" horiz-adv-x="448"
        d="M0 368v32c0 6.627 5.373 12 12 12h424c6.627 0 12-5.373 12-12v-32c0-6.627-5.373-12-12-12H12c-6.627 0-12 5.373-12 12zm12-140c-6.627 0-12 5.373-12 12v32c0 6.627 5.373 12 12 12h424c6.627 0 12-5.373 12-12v-32c0-6.627-5.373-12-12-12H12zm0-256C5.373-28 0-22.627 0-16v32c0 6.627 5.373 12 12 12h424c6.627 0 12-5.373 12-12v-32c0-6.627-5.373-12-12-12H12zm0 128c-6.627 0-12 5.373-12 12v32c0 6.627 5.373 12 12 12h424c6.627 0 12-5.373 12-12v-32c0-6.627-5.373-12-12-12H12z" />
      <glyph glyph-name="list" unicode=""
        d="M500 324H140c-6.627 0-12 5.373-12 12v32c0 6.627 5.373 12 12 12h360c6.627 0 12-5.373 12-12v-32c0-6.627-5.373-12-12-12zm12-148c0-6.627-5.373-12-12-12H140c-6.627 0-12 5.373-12 12v32c0 6.627 5.373 12 12 12h360c6.627 0 12-5.373 12-12v-32zm0-160c0-6.627-5.373-12-12-12H140c-6.627 0-12 5.373-12 12v32c0 6.627 5.373 12 12 12h360c6.627 0 12-5.373 12-12V16zM92 320c0-6.627-5.373-12-12-12H16c-6.627 0-12 5.373-12 12v64c0 6.627 5.373 12 12 12h64c6.627 0 12-5.373 12-12v-64zm0-160c0-6.627-5.373-12-12-12H16c-6.627 0-12 5.373-12 12v64c0 6.627 5.373 12 12 12h64c6.627 0 12-5.373 12-12v-64zM92 0c0-6.627-5.373-12-12-12H16C9.373-12 4-6.627 4 0v64c0 6.627 5.373 12 12 12h64c6.627 0 12-5.373 12-12V0z" />
      <glyph glyph-name="outdent" unicode="" horiz-adv-x="448"
        d="M0 368v32c0 6.627 5.373 12 12 12h424c6.627 0 12-5.373 12-12v-32c0-6.627-5.373-12-12-12H12c-6.627 0-12 5.373-12 12zm204-140c-6.627 0-12 5.373-12 12v32c0 6.627 5.373 12 12 12h232c6.627 0 12-5.373 12-12v-32c0-6.627-5.373-12-12-12H204zM12-28C5.373-28 0-22.627 0-16v32c0 6.627 5.373 12 12 12h424c6.627 0 12-5.373 12-12v-32c0-6.627-5.373-12-12-12H12zm192 128c-6.627 0-12 5.373-12 12v32c0 6.627 5.373 12 12 12h232c6.627 0 12-5.373 12-12v-32c0-6.627-5.373-12-12-12H204zM4.687 180.687c-6.249 6.248-6.249 16.379 0 22.627l96 95.991c9.988 9.991 27.313 3.017 27.313-11.312V96.016c0-14.24-17.266-21.364-27.313-11.313z" />
      <glyph glyph-name="indent" unicode="" horiz-adv-x="448"
        d="M0 368v32c0 6.627 5.373 12 12 12h424c6.627 0 12-5.373 12-12v-32c0-6.627-5.373-12-12-12H12c-6.627 0-12 5.373-12 12zm172-140c-6.627 0-12 5.373-12 12v32c0 6.627 5.373 12 12 12h264c6.627 0 12-5.373 12-12v-32c0-6.627-5.373-12-12-12H172zM12-28C5.373-28 0-22.627 0-16v32c0 6.627 5.373 12 12 12h424c6.627 0 12-5.373 12-12v-32c0-6.627-5.373-12-12-12H12zm160 128c-6.627 0-12 5.373-12 12v32c0 6.627 5.373 12 12 12h264c6.627 0 12-5.373 12-12v-32c0-6.627-5.373-12-12-12H172zm-48.687 103.313c6.248-6.248 6.248-16.379 0-22.625l-96-95.992C17.325 74.705 0 81.679 0 96.008v191.976c0 14.24 17.265 21.364 27.313 11.313z" />
      <glyph glyph-name="video" unicode="" horiz-adv-x="576"
        d="M543.9 352c16.6 0 32.1-13 32.1-31.5V63.6c0-18.5-15.5-31.5-32.1-31.5-6.1 0-12.5 1.7-18.2 5.7L416 106.1V47.8C416 21.4 392.8 0 364.2 0H51.8C23.2 0 0 21.4 0 47.8v288.4C0 362.6 23.2 384 51.8 384h312.4c28.6 0 51.8-21.4 51.8-47.8v-58.3l109.7 68.4c5.7 3.9 12 5.7 18.2 5.7zM368 248v86.9c-.6.5-1.8 1.1-3.8 1.1H51.8c-2 0-3.2-.7-3.8-1.1V49.1c.6-.5 1.8-1.1 3.8-1.1h312.4c2 0 3.2.7 3.8 1.1V248zM528 92.8v198.3l-112-69.8v-58.7z" />
      <glyph glyph-name="image" unicode=""
        d="M464 384c26.51 0 48-21.49 48-48V48c0-26.51-21.49-48-48-48H48C21.49 0 0 21.49 0 48v288c0 26.51 21.49 48 48 48h416zm-6-336c3.312 0 6 2.688 6 6v276c0 3.312-2.688 6-6 6H54c-3.312 0-6-2.688-6-6V54c0-3.312 2.688-6 6-6h404zM128 296c22.09 0 40-17.91 40-40s-17.91-40-40-40-40 17.91-40 40 17.91 40 40 40zM96 96v48l39.514 39.515c4.687 4.686 12.285 4.686 16.971 0L192 144l119.514 119.515c4.688 4.687 12.285 4.687 16.972 0L416 176V96H96z" />
      <glyph glyph-name="pencil" unicode=""
        d="M491.609 374.375c27.209-27.208 26.958-69.756.628-96.087L176.91-39.09 27.916-63.672C11.697-66.346-2.346-52.3.329-36.085L24.91 112.911l317.378 315.304c26.384 26.382 69.082 26.378 95.46-.001zM120.644 146H162V98h48V56.645l169.154 170.26-88.25 88.25zM82.132-10.132l73.586 12.14L174 20.41V62h-48v48H84.41L66.008 91.718 53.869 18.13zm378.985 319.533c9.31 9.312 9.25 23.983-.628 33.86l-53.854 53.855c-9.258 9.258-24.09 9.144-33.236-.001l-.05-.05-.05-.05-48.344-48.03 88.03-88.03 48.03 48.344.051.05z" />
      <glyph glyph-name="map-marker" unicode="" horiz-adv-x="384"
        d="M192 448c105.986 0 192-85.903 192-192 0-71.103-23.925-93.234-151.272-297.424-18.763-30.083-62.672-30.12-81.456 0C23.992 162.659 0 184.883 0 256c0 105.986 85.903 192 192 192zm0-464c128.834 206.575 144 217.447 144 272 0 79.53-64.47 144-144 144S48 335.53 48 256c0-54.788 16.576-67.686 144-272z" />
      <glyph glyph-name="adjust" unicode=""
        d="M256 392c-110.532 0-200-89.451-200-200C56 81.468 145.451-8 256-8c110.532 0 200 89.451 200 200 0 110.532-89.451 200-200 200zm0 48c136.967 0 248-111.033 248-248S392.967-56 256-56 8 55.033 8 192s111.033 248 248 248zm0-96V40c-83.947 0-152 68.053-152 152s68.053 152 152 152z" />
      <glyph glyph-name="tint" unicode="" horiz-adv-x="352"
        d="M205.22 425.91C252.21 267.43 352 225.84 352 114.09 352 15.65 273.28-64 176-64S0 15.65 0 114.09c0 111.19 100.01 154.061 146.78 311.82 4.45 14.89 16.84 22.09 29.19 22.09 12.64 0 25.24-7.53 29.25-22.09zM176-16c70.58 0 128 58.36 128 130.08 0 43.57-20.61 73.02-51.8 117.6-24.18 34.56-53.05 75.83-76.2 132.66-23.06-56.54-51.89-97.85-76.04-132.46C68.67 187.04 48 157.42 48 114.09 48 42.36 105.42-16 176-16zm16 64c8.84 0 16-7.16 16-16s-7.16-16-16-16C130.25 16 80 66.25 80 128c0 8.84 7.16 16 16 16s16-7.16 16-16c0-44.11 35.88-80 80-80z" />
      <glyph glyph-name="edit" unicode="" horiz-adv-x="576"
        d="M402.3 103.1l32 32c5 5 13.7 1.5 13.7-5.7V-16c0-26.5-21.5-48-48-48H48C21.5-64 0-42.5 0-16v352c0 26.5 21.5 48 48 48h273.5c7.1 0 10.7-8.599 5.7-13.7l-32-32c-1.5-1.5-3.5-2.3-5.7-2.3H48V-16h352V97.5c0 2.1.8 4.1 2.3 5.6zm156.6 201.8L296.299 42.299l-90.4-10c-26.2-2.9-48.5 19.2-45.6 45.6l10 90.4L432.9 430.9c22.9 22.9 59.9 22.9 82.7 0l43.2-43.2c22.9-22.9 22.9-60 .1-82.8zM460.1 274L402 332.1 216.2 146.2l-7.3-65.3 65.3 7.3zm64.8 79.7l-43.2 43.2c-4.1 4.1-10.8 4.1-14.8 0L436 366l58.1-58.1 30.9 30.9c4 4.2 4 10.8-.1 14.9z" />
      <glyph glyph-name="arrows" unicode=""
        d="M360.549 35.784l-96.064-96.27c-4.686-4.685-12.284-4.685-16.971 0l-96.064 96.27c-4.686 4.686-4.686 12.284 0 16.97l19.626 19.627c4.753 4.753 12.484 4.675 17.14-.173L230 27.22h2V168H91.22v-2l44.986-41.783c4.849-4.657 4.927-12.387.173-17.14L116.753 87.45c-4.685-4.687-12.284-4.687-16.97 0L3.515 183.514c-4.686 4.687-4.686 12.285 0 16.972l96.27 96.064c4.685 4.686 12.284 4.686 16.97 0l19.625-19.626c4.753-4.753 4.675-12.484-.173-17.14L91.22 218v-2H232v140.78h-2l-41.783-44.986c-4.656-4.85-12.387-4.927-17.14-.173l-19.626 19.626c-4.686 4.685-4.686 12.284 0 16.97l96.064 96.27c4.686 4.685 12.284 4.685 16.971 0l96.064-96.27c4.686-4.685 4.686-12.284 0-16.97l-19.626-19.626c-4.753-4.753-12.483-4.675-17.14.173L282 356.78h-2V216h140.78v2l-44.986 41.783c-4.849 4.656-4.927 12.387-.173 17.14l19.626 19.626c4.685 4.686 12.284 4.686 16.97 0l96.27-96.064c4.686-4.686 4.686-12.284 0-16.972l-96.27-96.063c-4.685-4.687-12.284-4.687-16.97 0l-19.626 19.626c-4.753 4.753-4.675 12.483.173 17.14L420.78 166v2H280V27.22h2l41.783 44.986c4.657 4.849 12.387 4.927 17.14.173l19.626-19.626c4.687-4.685 4.687-12.283 0-16.969z" />
      <glyph glyph-name="step-backward" unicode="" horiz-adv-x="448"
        d="M76-32c-6.6 0-12 5.4-12 12v424c0 6.6 5.4 12 12 12h24c6.6 0 12-5.4 12-12V219.9l219.5 188.699c20.6 17.2 52.5 2.8 52.5-24.6V0c0-27.4-31.9-41.8-52.5-24.6L112 163V-20c0-6.599-5.4-12-12-12H76zm260 381.5l-186.7-158L336 34.4v315.1z" />
      <glyph glyph-name="fast-backward" unicode=""
        d="M12 0C5.4 0 0 5.4 0 12v360c0 6.6 5.4 12 12 12h24c6.6 0 12-5.4 12-12V212.6c1.1 1.2 2.2 2.3 3.5 3.4l184 160.5c20.6 17.2 52.5 2.8 52.5-24.6v-125l171.5 149.7c20.6 17.2 52.5 2.8 52.5-24.6V32c0-27.4-31.9-41.8-52.5-24.6L288 156V32c0-27.4-31.9-41.8-52.5-24.599l-184 159.5c-1.3 1-2.4 2.2-3.5 3.4V12c0-6.6-5.4-12-12-12H12zm452 316.8L320.4 191.5 464 67v249.8zm-224 0L96.4 191.5 240 67v249.8z" />
      <glyph glyph-name="backward" unicode=""
        d="M267.5 166.8c-15.3 12.8-15.3 36.4 0 49.2l192 160.6c20.6 17.2 52.5 2.801 52.5-24.6V32c0-27.4-31.9-41.8-52.5-24.599zM464 317.7L313 191.4 464 66v251.7zM11.5 166.8c-15.3 12.8-15.3 36.4 0 49.2l192 160.6c20.6 17.2 52.5 2.801 52.5-24.6V32c0-27.4-31.9-41.8-52.5-24.599zM208 317.7L57 191.4 208 66v251.7z" />
      <glyph glyph-name="play" unicode="" horiz-adv-x="448"
        d="M424.4 233.3c31.5-18.5 31.4-64.1 0-82.6l-352-208C40.7-76.1 0-53.5 0-16v416.1c0 41.801 43.8 58.2 72.4 41.301zM48-5.5c0-4.6 5.1-7.5 9.1-5.2l334.2 197.6c3.9 2.3 3.9 8 0 10.3L57.1 394.7c-4 2.3-9.1-.6-9.1-5.2v-395z" />
      <glyph glyph-name="pause" unicode="" horiz-adv-x="448"
        d="M192 369V17c0-26.5-21.5-48-48-48H48C21.5-31 0-9.5 0 17v352c0 26.5 21.5 48 48 48h96c26.5 0 48-21.5 48-48zM144 23v340c0 3.3-2.7 6-6 6H54c-3.3 0-6-2.7-6-6V23c0-3.3 2.7-6 6-6h84c3.3 0 6 2.7 6 6zm304 346V17c0-26.5-21.5-48-48-48h-96c-26.5 0-48 21.5-48 48v352c0 26.5 21.5 48 48 48h96c26.5 0 48-21.5 48-48zM400 23v340c0 3.3-2.7 6-6 6h-84c-3.3 0-6-2.7-6-6V23c0-3.3 2.7-6 6-6h84c3.3 0 6 2.7 6 6z" />
      <glyph glyph-name="stop" unicode="" horiz-adv-x="448"
        d="M400 416c26.5 0 48-21.5 48-48V16c0-26.5-21.5-48-48-48H48C21.5-32 0-10.5 0 16v352c0 26.5 21.5 48 48 48h352zm-6-400c3.3 0 6 2.7 6 6v340c0 3.3-2.7 6-6 6H54c-3.3 0-6-2.7-6-6V22c0-3.3 2.7-6 6-6h340z" />
      <glyph glyph-name="forward" unicode=""
        d="M244.5 217.2c15.3-12.8 15.3-36.4 0-49.2L52.5 7.4C31.9-9.8 0 4.599 0 32v320c0 27.4 31.9 41.7 52.5 24.599zM48 66.3l151 126.2L48 317.9V66.299zm452.5 150.9c15.3-12.8 15.3-36.4 0-49.2L308.5 7.4C287.9-9.8 256 4.599 256 32v320c0 27.4 31.9 41.7 52.5 24.599zM304 66.3l151 126.2-151 125.4V66.299z" />
      <glyph glyph-name="fast-forward" unicode=""
        d="M500 384c6.6 0 12-5.4 12-12V12c0-6.6-5.4-12-12-12h-24c-6.6 0-12 5.4-12 12v159.3c-1.1-1.2-2.2-2.3-3.5-3.4L276.5 7.4C255.9-9.8 224 4.6 224 32v125L52.5 7.4C31.9-9.8 0 4.6 0 32v320c0 27.4 31.9 41.7 52.5 24.6L224 228v124c0 27.4 31.9 41.7 52.5 24.599l184-159.5c1.3-1 2.4-2.2 3.5-3.4V372c0 6.6 5.4 12 12 12h24zM48 67.2l143.6 125.3L48 316.9V67.2zm224 0l143.6 125.3L272 316.9V67.2z" />
      <glyph glyph-name="step-forward" unicode="" horiz-adv-x="448"
        d="M372 416c6.6 0 12-5.4 12-12V-20c0-6.6-5.4-12-12-12h-24c-6.6 0-12 5.4-12 12v184.1L116.5-24.599c-20.6-17.2-52.5-2.8-52.5 24.6v384c0 27.4 31.9 41.7 52.5 24.6L336 221v183c0 6.599 5.4 12 12 12h24zM112 34.5l186.7 158L112 349.6V34.5z" />
      <glyph glyph-name="eject" unicode="" horiz-adv-x="448"
        d="M400 128c26.51 0 48-21.49 48-48V16c0-26.51-21.49-48-48-48H48C21.49-32 0-10.51 0 16v64c0 26.51 21.49 48 48 48h352zm0-112v64H48V16h352zM48.048 144c-42.723 0-64.09 51.792-33.94 81.941l175.95 176c18.746 18.746 49.138 18.745 67.883 0l175.942-176c30.21-30.21 8.697-81.941-33.94-81.941H48.047zM224 368L48 192h352z" />
      <glyph glyph-name="chevron-left" unicode="" horiz-adv-x="256"
        d="M231.293-25.9c-4.686-4.686-12.284-4.686-16.97 0L4.907 183.514c-4.686 4.687-4.686 12.285 0 16.971L214.322 409.9c4.687 4.686 12.286 4.686 16.971 0l19.799-19.8c4.686-4.686 4.686-12.284 0-16.97L70.392 192l180.7-181.13c4.686-4.687 4.686-12.284 0-16.97z" />
      <glyph glyph-name="chevron-right" unicode="" horiz-adv-x="256"
        d="M24.707 409.899c4.686 4.687 12.284 4.687 16.97 0l209.415-209.414c4.686-4.688 4.686-12.285 0-16.972L41.678-25.9c-4.687-4.685-12.285-4.685-16.971 0L4.908-6.1C.222-1.414.222 6.183 4.908 10.87L185.608 192 4.907 373.13c-4.686 4.688-4.686 12.286 0 16.972z" />
      <glyph glyph-name="plus-circle" unicode=""
        d="M384 208v-32c0-6.6-5.4-12-12-12h-88V76c0-6.6-5.4-12-12-12h-32c-6.6 0-12 5.4-12 12v88h-88c-6.6 0-12 5.4-12 12v32c0 6.6 5.4 12 12 12h88v88c0 6.6 5.4 12 12 12h32c6.6 0 12-5.4 12-12v-88h88c6.6 0 12-5.4 12-12zm120-16C504 55 393-56 256-56S8 55 8 192s111 248 248 248 248-111 248-248zm-48 0c0 110.5-89.5 200-200 200S56 302.5 56 192 145.5-8 256-8s200 89.5 200 200z" />
      <glyph glyph-name="minus-circle" unicode=""
        d="M140 164c-6.6 0-12 5.4-12 12v32c0 6.6 5.4 12 12 12h232c6.6 0 12-5.4 12-12v-32c0-6.6-5.4-12-12-12H140zm364 28C504 55 393-56 256-56S8 55 8 192s111 248 248 248 248-111 248-248zm-48 0c0 110.5-89.5 200-200 200S56 302.5 56 192 145.5-8 256-8s200 89.5 200 200z" />
      <glyph glyph-name="times-circle" unicode=""
        d="M256 440c137 0 248-111 248-248S393-56 256-56 8 55 8 192s111 248 248 248zm0-448c110.5 0 200 89.5 200 200s-89.5 200-200 200S56 302.5 56 192 145.5-8 256-8zm101.8 262.2L295.6 192l62.2-62.2c4.7-4.7 4.7-12.3 0-17l-22.6-22.6c-4.7-4.7-12.3-4.7-17 0L256 152.4l-62.2-62.2c-4.7-4.7-12.3-4.7-17 0l-22.6 22.6c-4.7 4.7-4.7 12.3 0 17l62.2 62.2-62.2 62.2c-4.7 4.7-4.7 12.3 0 17l22.6 22.6c4.7 4.7 12.3 4.7 17 0l62.2-62.2 62.2 62.2c4.7 4.7 12.3 4.7 17 0l22.6-22.6c4.7-4.7 4.7-12.3 0-17z" />
      <glyph glyph-name="check-circle" unicode=""
        d="M256 440c136.967 0 248-111.033 248-248S392.967-56 256-56 8 55.033 8 192s111.033 248 248 248zm0-48c-110.549 0-200-89.468-200-200C56 81.451 145.468-8 256-8c110.549 0 200 89.468 200 200 0 110.549-89.468 200-200 200zm140.204-130.267c4.667-4.705 4.637-12.304-.067-16.972L223.547 73.557c-4.704-4.668-12.302-4.636-16.97.069l-90.78 91.515c-4.668 4.706-4.637 12.305.068 16.972l22.719 22.536c4.705 4.667 12.303 4.636 16.97-.07l59.792-60.277 141.353 140.216c4.705 4.668 12.302 4.638 16.97-.067z" />
      <glyph glyph-name="question-circle" unicode=""
        d="M256 440c136.957 0 248-111.083 248-248C504 55.003 392.957-56 256-56S8 55.003 8 192c0 136.917 111.043 248 248 248zm0-448c110.569 0 200 89.47 200 200 0 110.529-89.509 200-200 200-110.528 0-200-89.505-200-200C56 81.431 145.468-8 256-8zm107.244 255.2c0-67.052-72.42-68.084-72.42-92.863V148c0-6.627-5.374-12-12-12h-45.648c-6.627 0-12 5.373-12 12v8.659c0 35.745 27.1 50.034 47.579 61.516 17.561 9.844 28.324 16.54 28.324 29.579 0 17.246-22 28.693-39.784 28.693-23.189 0-33.894-10.977-48.943-29.97-4.056-5.119-11.46-6.07-16.666-2.124l-27.823 21.099c-5.107 3.872-6.25 11.065-2.644 16.363C184.846 316.51 214.94 336 261.794 336c49.07 0 101.45-38.304 101.45-88.8zM298 80c0-23.16-18.84-42-42-42s-42 18.84-42 42 18.84 42 42 42 42-18.84 42-42z" />
      <glyph glyph-name="info-circle" unicode=""
        d="M256 440c136.957 0 248-111.083 248-248C504 55.003 392.957-56 256-56S8 55.003 8 192c0 136.917 111.043 248 248 248zm0-448c110.569 0 200 89.47 200 200 0 110.529-89.509 200-200 200-110.528 0-200-89.505-200-200C56 81.431 145.468-8 256-8zm0 338c23.196 0 42-18.804 42-42s-18.804-42-42-42-42 18.804-42 42 18.804 42 42 42zm56-254c0-6.627-5.373-12-12-12h-88c-6.627 0-12 5.373-12 12v24c0 6.627 5.373 12 12 12h12v64h-12c-6.627 0-12 5.373-12 12v24c0 6.627 5.373 12 12 12h64c6.627 0 12-5.373 12-12V112h12c6.627 0 12-5.373 12-12V76z" />
      <glyph glyph-name="crosshairs" unicode=""
        d="M500 216c6.627 0 12-5.373 12-12v-24c0-6.627-5.373-12-12-12h-29.334C459.596 67.885 380.116-11.597 280-22.666V-52c0-6.627-5.373-12-12-12h-24c-6.627 0-12 5.373-12 12v29.334C131.885-11.596 52.403 67.884 41.334 168H12c-6.627 0-12 5.373-12 12v24c0 6.627 5.373 12 12 12h29.334C52.404 316.115 131.884 395.597 232 406.666V436c0 6.627 5.373 12 12 12h24c6.627 0 12-5.373 12-12v-29.334c100.115-11.07 179.597-90.55 190.666-190.666H500zM280 25.7C353.532 36.153 411.84 94.426 422.301 168h-42.3c-6.628 0-12 5.373-12 12v24c0 6.627 5.372 12 12 12h42.3C411.846 289.532 353.573 347.84 280 358.301v-42.3c0-6.628-5.373-12-12-12h-24c-6.627 0-12 5.372-12 12v42.3c-73.532-10.455-131.84-68.727-142.301-142.3h42.3c6.628 0 12-5.374 12-12v-24c0-6.628-5.372-12-12-12H89.7C100.154 94.467 158.427 36.16 232 25.698V68c0 6.627 5.373 12 12 12h24c6.627 0 12-5.373 12-12V25.7zm8 166.3c0-17.673-14.327-32-32-32s-32 14.327-32 32 14.327 32 32 32 32-14.327 32-32z" />
      <glyph glyph-name="ban" unicode=""
        d="M256 440c136.967 0 248-111.033 248-248S392.967-56 256-56 8 55.033 8 192s111.033 248 248 248zm141.421-106.579c-73.156 73.157-187.277 77.07-264.865 15.964l280.829-280.83c61.086 77.565 57.212 191.69-15.964 264.866zM114.579 50.579c73.156-73.157 187.277-77.07 264.865-15.964L98.615 315.445c-61.086-77.565-57.212-191.69 15.964-264.866z" />
      <glyph glyph-name="arrow-left" unicode="" horiz-adv-x="448"
        d="M229.9-25.9c-4.688-4.686-12.285-4.686-16.972 0L3.514 183.514c-4.685 4.687-4.685 12.285 0 16.971L212.928 409.9c4.688 4.686 12.286 4.686 16.972 0l19.799-19.798c4.685-4.687 4.685-12.285 0-16.971L94.569 218h341.43c6.628 0 12-5.373 12-12v-28c0-6.627-5.372-12-12-12H94.57l155.13-155.13c4.685-4.687 4.685-12.284 0-16.97z" />
      <glyph glyph-name="arrow-right" unicode="" horiz-adv-x="448"
        d="M218.101 409.899c4.687 4.687 12.284 4.687 16.97 0l209.416-209.414c4.685-4.688 4.685-12.285 0-16.972L235.073-25.9c-4.688-4.685-12.286-4.685-16.972 0L198.302-6.1c-4.685 4.687-4.685 12.284 0 16.97L353.432 166H12c-6.627 0-12 5.374-12 12v28c0 6.628 5.373 12 12 12h341.432l-155.13 155.13c-4.685 4.687-4.685 12.285 0 16.97z" />
      <glyph glyph-name="arrow-up" unicode="" horiz-adv-x="448"
        d="M6.1 186.101c-4.686 4.687-4.686 12.284 0 16.97l209.414 209.415c4.687 4.685 12.285 4.685 16.971 0L441.9 203.073c4.686-4.688 4.686-12.286 0-16.972l-19.8-19.799c-4.686-4.685-12.284-4.685-16.97 0L250 321.432V-20c0-6.627-5.373-12-12-12h-28c-6.627 0-12 5.373-12 12v341.432L42.87 166.302c-4.687-4.685-12.284-4.685-16.97 0z" />
      <glyph glyph-name="arrow-down" unicode="" horiz-adv-x="448"
        d="M441.9 197.9c4.7-4.7 4.7-12.3 0-17L232.5-28.5c-4.7-4.7-12.3-4.7-17 0L6.1 180.9c-4.7 4.7-4.7 12.3 0 17l19.8 19.8c4.7 4.7 12.3 4.7 17 0L198 62.599v341.4c0 6.6 5.401 12 12 12h28c6.6 0 12-5.4 12-12v-341.4l155.1 155.1c4.701 4.701 12.302 4.701 17 0z" />
      <glyph glyph-name="share" unicode="" horiz-adv-x="576"
        d="M561.938 257.94c18.75-18.74 18.75-49.14-.002-67.88L385.94 14.12C355.73-16.09 304 5.42 304 48.06v78.28C157.41 117.8 145.47 76.14 169.82-1.54 183.469-45.098 134.75-80.428 97.63-56 38.018-16.768 0 44.2 0 117.95c0 170.37 166.04 197.149 304 201.3v80.703c0 42.72 51.79 64.09 81.94 33.94zM352 48l176 176-176 176V271.97c-143.181-.63-304-11.777-304-154.02C48 50.99 88 8 124.02-15.7 74.56 142.089 187.478 174.12 352 175.91V48z" />
      <glyph glyph-name="expand" unicode="" horiz-adv-x="448"
        d="M0 268v124c0 13.3 10.7 24 24 24h124c6.6 0 12-5.4 12-12v-24c0-6.6-5.4-12-12-12H48V268c0-6.6-5.4-12-12-12H12c-6.6 0-12 5.4-12 12zm288 136c0 6.6 5.4 12 12 12h124c13.3 0 24-10.7 24-24V268c0-6.6-5.4-12-12-12h-24c-6.6 0-12 5.4-12 12v100H300c-6.6 0-12 5.4-12 12v24zm148-276c6.6 0 12-5.4 12-12V-8c0-13.3-10.7-24-24-24H300c-6.6 0-12 5.4-12 12V4c0 6.6 5.4 12 12 12h100v100c0 6.6 5.4 12 12 12h24zM160-20c0-6.6-5.4-12-12-12H24C10.7-32 0-21.3 0-8v124c0 6.6 5.4 12 12 12h24c6.6 0 12-5.4 12-12V16h100c6.6 0 12-5.4 12-12v-24z" />
      <glyph glyph-name="compress" unicode="" horiz-adv-x="448"
        d="M436 256H312c-13.3 0-24 10.7-24 24v124c0 6.6 5.4 12 12 12h24c6.6 0 12-5.4 12-12V304h100c6.6 0 12-5.4 12-12v-24c0-6.6-5.4-12-12-12zm-276 24c0-13.3-10.7-24-24-24H12c-6.6 0-12 5.4-12 12v24c0 6.6 5.4 12 12 12h100v100c0 6.6 5.4 12 12 12h24c6.6 0 12-5.4 12-12V280zm0-300c0-6.6-5.4-12-12-12h-24c-6.6 0-12 5.4-12 12V80H12C5.4 80 0 85.4 0 92v24c0 6.6 5.4 12 12 12h124c13.3 0 24-10.7 24-24V-20zm176 0c0-6.6-5.4-12-12-12h-24c-6.6 0-12 5.4-12 12v124c0 13.3 10.7 24 24 24h124c6.6 0 12-5.4 12-12V92c0-6.6-5.4-12-12-12H336V-20z" />
      <glyph glyph-name="plus" unicode="" horiz-adv-x="384"
        d="M368 224c8.84 0 16-7.16 16-16v-32c0-8.84-7.16-16-16-16H224V16c0-8.84-7.16-16-16-16h-32c-8.84 0-16 7.16-16 16v144H16c-8.84 0-16 7.16-16 16v32c0 8.84 7.16 16 16 16h144v144c0 8.84 7.16 16 16 16h32c8.84 0 16-7.16 16-16V224h144z" />
      <glyph glyph-name="minus" unicode="" horiz-adv-x="384"
        d="M368 224c8.84 0 16-7.16 16-16v-32c0-8.84-7.16-16-16-16H16c-8.84 0-16 7.16-16 16v32c0 8.84 7.16 16 16 16h352z" />
      <glyph glyph-name="asterisk" unicode=""
        d="M479.31 90.784c5.74-3.313 7.706-10.653 4.393-16.392l-12-20.784c-3.315-5.739-10.653-7.706-16.393-4.392L280 150.43V-52c0-6.627-5.373-12-12-12h-24c-6.627 0-12 5.373-12 12v202.43L56.69 49.217c-5.74-3.314-13.078-1.347-16.393 4.392l-12 20.784C24.984 80.13 26.95 87.47 32.69 90.784L208 192 32.69 293.216c-5.74 3.314-7.706 10.652-4.393 16.393l12 20.784c3.314 5.74 10.653 7.706 16.393 4.393L232 233.57V436c0 6.628 5.373 12 12 12h24c6.627 0 12-5.372 12-12V233.57l175.309 101.215c5.74 3.313 13.078 1.347 16.393-4.393l12-20.784c3.313-5.74 1.347-13.078-4.393-16.393L303.999 192z" />
      <glyph glyph-name="exclamation-circle" unicode=""
        d="M256 440c136.957 0 248-111.083 248-248C504 55.003 392.957-56 256-56S8 55.003 8 192c0 136.917 111.043 248 248 248zm0-448c110.569 0 200 89.47 200 200 0 110.529-89.509 200-200 200-110.528 0-200-89.505-200-200C56 81.431 145.468-8 256-8zm42 104c0-23.16-18.84-42-42-42s-42 18.84-42 42 18.84 42 42 42 42-18.84 42-42zm-81.37 211.401c-.343 6.854 5.122 12.599 11.985 12.599h54.77c6.863 0 12.328-5.746 11.985-12.599l-6.8-136c-.319-6.388-5.591-11.401-11.985-11.401h-41.17c-6.393 0-11.666 5.013-11.985 11.401z" />
      <glyph glyph-name="gift" unicode=""
        d="M464 304c26.5 0 48-21.5 48-48V128c0-8.8-7.2-16-16-16h-16V4.6c0-29-23.6-52.6-52.6-52.6H84.6C55.6-48 32-24.4 32 4.6V112H16c-8.8 0-16 7.2-16 16v128c0 26.5 21.5 48 48 48h28.1C69.8 316.1 66 329.5 66 344c0 48.5 39.5 88 88 88 41.6 0 68.5-21.3 103-68.3 34.5 47 61.4 68.3 103 68.3 48.5 0 88-39.5 88-88 0-14.5-3.9-27.9-10.1-40H464zM232 0v256H48v-96h144v-48H80V4.6C80 2 82.1 0 84.6 0H232zm-78.1 304H240l-2 3c-46.6 69.4-62.1 77-84.1 77-22.1 0-40-17.9-40-40s17.9-40 40-40zm122 3l-2-3H360c22.1 0 40 17.9 40 40s-17.9 40-40 40c-22 0-37.5-7.6-84.1-77zM464 160v96H280V0h147.4c2.6 0 4.6 2.1 4.6 4.6V112H320v48h144z" />
      <glyph glyph-name="leaf" unicode="" horiz-adv-x="576"
        d="M546.2 438.3c19-42.4 29.8-94.4 29.8-144.6 0-172.4-110.5-313.2-267.6-324.601-76.9-8.1-147.9 29.9-185.5 93.1C67.599 9.6 47-46.8 46.599-47.9c-3.8-11-16.5-19.6-30.5-14.8-12.5 4.3-19.1 18-14.8 30.5.5 1.4 27.7 76.5 101.8 141-4.5 16.3-7.1 33.4-7.1 51.2 0 106 86 192 192 192h80c63.401 0 118.9 33.6 149.9 87.5 3.3 5.7 8.7 8.5 14 8.5 5.7 0 11.4-3.2 14.3-9.7zM303.4 16.8C434.2 26.3 528 142.7 528.099 293.7c0 23.7-2.8 48-8 71.2-40.4-38.9-94.1-60.9-152-60.9h-80c-79.4 0-144-64.6-144-144 0-6.6 1.1-13 2-19.4 52.9 33.9 122.7 59.4 214 59.4 13.2 0 24-10.8 24-24s-10.8-24-24-24c-86.9 0-151.5-25.8-198.899-58.7 11.6-22 56.1-85.6 142.2-76.5z" />
      <glyph glyph-name="fire" unicode="" horiz-adv-x="384"
        d="M216 423.99c0-103.141 168-125.7 168-295.99 0-105.87-86.13-192-192-192S0 22.13 0 128c0 62.72 30.75 121.62 82.27 157.55 15.87 11.08 37.73-.29 37.73-19.68V160c0-22.06 17.94-40 40-40s40 17.94 40 40c0 49.27-123.45 129.75-28.15 277.03C184.84 457.1 216 447.79 216 423.99zM192-16c79.4 0 144 64.6 144 144 0 118.23-112 152-152 240-24-88 64-143.73 64-208 0-48.52-39.48-88-88-88s-88 39.48-88 88v56c-15.44-23.29-24-59.34-24-88 0-79.4 64.6-144 144-144z" />
      <glyph glyph-name="eye" unicode="" horiz-adv-x="576"
        d="M288 304l.337.001c61.664 0 111.71-50.047 111.71-111.711 0-61.663-50.046-111.71-111.71-111.71s-111.71 50.047-111.71 111.71c0 8.713 1.959 22.578 4.373 30.95 6.93-3.941 19.027-7.184 27-7.24 30.912 0 56 25.088 56 56-.056 7.973-3.299 20.07-7.24 27 8.424 2.622 22.419 4.862 31.24 5zm284.52-97.4c1.92-3.799 3.48-10.338 3.48-14.595s-1.56-10.796-3.48-14.594C518.32 71.64 410.93 0 288 0S57.71 71.59 3.48 177.4C1.56 181.199 0 187.739 0 191.995s1.56 10.796 3.48 14.595C57.68 312.361 165.07 384 288 384s230.29-71.59 284.52-177.4zM288 48c98.66 0 189.1 55 237.93 144C477.09 281 386.66 336 288 336S98.91 281 50.07 192C98.91 103 189.349 48 288 48z" />
      <glyph glyph-name="eye-slash" unicode="" horiz-adv-x="640"
        d="M634-23c3.317-2.651 6.01-8.251 6.01-12.498 0-3.104-1.577-7.59-3.52-10.012l-10-12.49c-2.652-3.311-8.247-6-12.49-6-3.1 0-7.58 1.572-10 3.51L6 407c-3.317 2.651-6.01 8.25-6.01 12.498 0 3.104 1.577 7.59 3.52 10.012l10 12.49c2.652 3.311 8.247 6 12.49 6 3.1 0 7.58-1.572 10-3.51zM296.79 301.53c6.335 1.35 16.732 2.458 23.21 2.47 60.48 0 109.36-47.91 111.58-107.85zm46.42-219.07c-6.335-1.344-16.733-2.446-23.21-2.46-60.47 0-109.35 47.91-111.58 107.84zM320 336c-19.88 0-39.28-2.8-58.22-7.1l-46.41 36.29C248.29 377 283.3 384 320 384c122.93 0 230.29-71.59 284.57-177.4 1.92-3.799 3.48-10.338 3.48-14.595s-1.56-10.796-3.48-14.594c-11.72-22.76-35.419-56.41-52.9-75.11l-37.74 29.5c14.333 15.015 34.044 41.985 44 60.2C509.09 281 418.65 336 320 336zm0-288c19.89 0 39.28 2.8 58.22 7.09l46.41-36.28C391.71 7.05 356.7 0 320 0 197.08 0 89.72 71.59 35.49 177.4c-1.921 3.799-3.48 10.338-3.48 14.595s1.559 10.796 3.48 14.594c11.717 22.757 35.411 56.402 52.89 75.1l37.74-29.5c-14.347-15.01-34.081-41.975-44.05-60.19C130.92 103 221.349 48 320 48z" />
      <glyph glyph-name="exclamation-triangle" unicode="" horiz-adv-x="576"
        d="M248.747 243.295c-.405 6.894 5.075 12.705 11.977 12.705h54.548c6.904 0 12.384-5.811 11.979-12.705l-6.588-112c-.367-6.234-5.733-11.295-11.98-11.295h-41.369c-6.353 0-11.606 4.952-11.98 11.295zM330 64c0-23.196-18.804-42-42-42s-42 18.804-42 42 18.804 42 42 42 42-18.804 42-42zm-.423 360.015L569.516 7.988c18.458-31.994-4.712-71.987-41.576-71.987H48.053c-36.936 0-60 40.053-41.577 71.987l239.946 416.027c18.466 32.01 64.72 31.951 83.154 0zM53.191-7.002c-2.307-4 .58-8.998 5.197-8.997h459.225c4.618 0 7.505 4.998 5.196 8.998L293.198 390.992c-2.31 4.002-8.085 4.002-10.395 0z" />
      <glyph glyph-name="plane" unicode="" horiz-adv-x="576"
        d="M239.57 400h-37.14l50.29-176H136l-36 48H58.68L82 192l-23.32-80H100l36 48h116.72L202.43-16h37.14l100.569 176h115.86c26.03 0 62.87 19.73 71.1 32-8.23 12.27-45.07 32-71.1 32h-115.86zm18.57 48c5.124 0 11.348-3.611 13.89-8.06L368 272h88c44.18 0 120-35.81 120-80 0-44.18-75.82-80-120-80h-88L272.02-55.94A16.01 16.01 0 00258.13-64H160c-10.63 0-18.3 10.18-15.38 20.401l44.46 155.6H160l-31.2-41.6c-3.02-4.03-7.76-6.4-12.8-6.4H16.01c-10.41 0-18.05 9.78-15.52 19.88L32 192.001.49 300.121c-2.53 10.1 5.11 19.88 15.52 19.88H116c5.03 0 9.78-2.37 12.8-6.4L160 272h29.08l-44.45 155.61c-2.92 10.22 4.75 20.39 15.38 20.39h98.13z" />
      <glyph glyph-name="calendar-alt" unicode="" horiz-adv-x="448"
        d="M148 160h-40c-6.6 0-12 5.4-12 12v40c0 6.6 5.4 12 12 12h40c6.6 0 12-5.4 12-12v-40c0-6.6-5.4-12-12-12zm108 12c0-6.6-5.4-12-12-12h-40c-6.6 0-12 5.4-12 12v40c0 6.6 5.4 12 12 12h40c6.6 0 12-5.4 12-12v-40zm96 0c0-6.6-5.4-12-12-12h-40c-6.6 0-12 5.4-12 12v40c0 6.6 5.4 12 12 12h40c6.6 0 12-5.4 12-12v-40zm-96-96c0-6.6-5.4-12-12-12h-40c-6.6 0-12 5.4-12 12v40c0 6.6 5.4 12 12 12h40c6.6 0 12-5.4 12-12V76zm-96 0c0-6.6-5.4-12-12-12h-40c-6.6 0-12 5.4-12 12v40c0 6.6 5.4 12 12 12h40c6.6 0 12-5.4 12-12V76zm192 0c0-6.6-5.4-12-12-12h-40c-6.6 0-12 5.4-12 12v40c0 6.6 5.4 12 12 12h40c6.6 0 12-5.4 12-12V76zm96 260V-16c0-26.5-21.5-48-48-48H48C21.5-64 0-42.5 0-16v352c0 26.5 21.5 48 48 48h48v52c0 6.6 5.4 12 12 12h40c6.6 0 12-5.4 12-12v-52h128v52c0 6.6 5.4 12 12 12h40c6.6 0 12-5.4 12-12v-52h48c26.5 0 48-21.5 48-48zM400-10v298H48V-10c0-3.3 2.7-6 6-6h340c3.3 0 6 2.7 6 6z" />
      <glyph glyph-name="random" unicode=""
        d="M505 48l-79.2-72.9C410.7-40 384-29.3 384-7.9v40h-31c-3.3 0-6.5 1.4-8.8 3.9l-89.8 97.2 38.1 41.3 79.8-86.3H384v48c0 21.4 26.7 32.1 41.8 17l79.2-71c9.3-9.6 9.3-24.8 0-34.2zM12 296c-6.6 0-12 5.4-12 12.1v32c0 6.6 5.4 12 12 12h111.1c3.3 0 6.5-1.4 8.8-3.9l89.8-97.2-38.1-41.3-79.8 86.3H12zm493 41.9c9.3-9.3 9.3-24.5 0-33.9l-79.2-73c-15.1-15.1-41.8-4.4-41.8 17v48h-11.8L131.8 35.9c-2.3-2.5-5.5-3.9-8.8-3.9H12C5.4 32 0 37.4 0 44v32c0 6.599 5.4 12 12 12h91.8l240.4 260.1c2.3 2.5 5.5 3.9 8.8 3.9h31v40c0 21.3 26.7 32 41.8 16.9z" />
      <glyph glyph-name="comment" unicode=""
        d="M256 416c141.4 0 256-93.1 256-208S397.4 0 256 0c-32.8 0-64 5.2-92.9 14.3C134-6.3 85.5-32 24-32c-9.6 0-18.3 5.7-22.1 14.5-3.8 8.8-2 19 4.6 26C7 8.9 38 42.3 52.9 81.7 19.9 116.8 0 160.4 0 208c0 114.9 114.6 208 256 208zm0-368c114.7 0 208 71.8 208 160s-93.3 160-208 160S48 296.2 48 208c0-42.2 21.7-74.1 39.8-93.4l20.6-21.8-10.6-28.1c-5.5-14.5-12.6-28.1-19.9-40.2 23.6 7.6 43.2 18.9 57.5 29l19.5 13.8 22.7-7.2c25.3-8 51.7-12.1 78.4-12.1z" />
      <glyph glyph-name="magnet" unicode=""
        d="M509.8 392.4c1.4-3.9 2.2-8.1 2.2-12.4V190.7C512 40 377.5-56 256.8-56 136.2-56 0 40 0 190.7V380c0 4.3.8 8.5 2.2 12.4 1.2 3.3 2.9 6.4 5 9.2 6.5 8.8 17 14.5 28.8 14.5h104c11.8 0 22.2-5.7 28.8-14.5 2.1-2.8 3.8-5.9 5-9.2 1.4-3.9 2.2-8.1 2.2-12.4V208.1c0-64 40.1-96 80.1-96 39.9 0 79.9 32 79.9 96v172c0 5.6 1.2 10.9 3.5 15.6.8 1.6 1.6 3.1 2.6 4.5 6.5 9.6 17.5 15.9 29.9 15.9h104c11.8 0 22.2-5.7 28.8-14.5 2.1-2.8 3.8-5.9 5-9.2zM464 190.7v81.2h-80v-64c0-53.1-20.7-86.3-38-104.8-11.9-12.7-26-22.5-41.8-29.3-15.3-6.5-31.5-9.8-48.2-9.8-16.6 0-32.9 3.4-48.2 9.9-15.8 6.7-29.9 16.6-41.8 29.3-17.3 18.5-38 51.7-38 104.8v64H48v-81.3c0-28.8 6.2-56.1 18.2-81.2C77.6 86.1 93.9 65.1 114.6 47c39.5-34.4 92.6-55 142.1-55 24 0 49.5 4.9 73.6 14.2 24.7 9.5 48.1 23.5 67.6 40.7 20.6 18.1 36.7 39.1 47.9 62.5 12.1 25.1 18.2 52.4 18.2 81.3z" />
      <glyph glyph-name="chevron-up" unicode="" horiz-adv-x="448"
        d="M6.1 88.707c-4.686 4.686-4.686 12.284 0 16.97l209.414 209.415c4.687 4.686 12.285 4.686 16.971 0L441.9 105.679c4.686-4.687 4.686-12.286 0-16.971l-19.8-19.799c-4.686-4.686-12.284-4.686-16.97 0L224 249.607 42.87 68.908c-4.687-4.686-12.284-4.686-16.97 0z" />
      <glyph glyph-name="chevron-down" unicode="" horiz-adv-x="448"
        d="M441.9 280.7c4.7-4.7 4.7-12.3 0-17L232.5 54.3c-4.7-4.7-12.3-4.7-17 0L6.1 263.7c-4.7 4.7-4.7 12.3 0 17l19.8 19.8c4.7 4.7 12.3 4.7 17 0L224 119.8l181.1 180.7c4.701 4.7 12.302 4.7 17 0z" />
      <glyph glyph-name="retweet" unicode="" horiz-adv-x="640"
        d="M624.485 94.544l-104-104c-4.687-4.686-12.284-4.686-16.972 0l-104 104c-4.685 4.686-4.685 12.284 0 16.97l16.877 16.878c4.724 4.723 12.394 4.681 17.065-.094L488 72.535V296H284.022c-2.743 0-6.544 1.575-8.484 3.515l-24 24c-7.56 7.56-2.206 20.485 8.486 20.485H512c13.255 0 24-10.745 24-24V72.535l54.545 55.762c4.67 4.775 12.34 4.817 17.064.094l16.877-16.877c4.686-4.686 4.686-12.284 0-16.97zM364.461 84.485l24-24c7.56-7.56 2.206-20.485-8.485-20.485H128c-13.255 0-24 10.745-24 24v247.465l-54.544-55.762c-4.671-4.775-12.341-4.817-17.065-.093l-16.877 16.877c-4.685 4.686-4.685 12.285 0 16.97l104 104c4.688 4.686 12.285 4.686 16.972 0l104-104c4.686-4.687 4.686-12.285 0-16.97l-16.877-16.877c-4.724-4.724-12.394-4.682-17.065.093L152 311.465V88h203.976c2.744 0 6.544-1.575 8.485-3.515z" />
      <glyph glyph-name="shopping-cart" unicode="" horiz-adv-x="576"
        d="M551.991 384c15.308 0 26.704-14.139 23.452-29.098l-45.217-208C527.83 135.87 518.066 128 506.776 128H194.37l9.39-48h282.148c15.31 0 26.706-14.14 23.452-29.1l-1.035-4.758C520.445 34.496 528 18.136 528 0c0-35.346-28.654-64-64-64s-64 28.654-64 64v.07c0 9.45 3.845 23.754 8.583 31.93H263.416C268.155 23.824 272 9.52 272 .07V0c0-35.346-28.655-64-64-64s-64 28.654-64 64c0 17.198 6.795 32.799 17.834 44.299l-69.594 355.7H12c-6.627 0-12 5.374-12 12v24c0 6.628 5.373 12 12 12h100c11.477 0 21.35-8.127 23.553-19.39l8.727-44.61h407.71zM208-24c13.234 0 24 10.766 24 24s-10.766 24-24 24-24-10.766-24-24 10.766-24 24-24zm256 0c13.234 0 24 10.766 24 24s-10.766 24-24 24-24-10.766-24-24 10.766-24 24-24zm23.438 200l34.78 160H153.668l31.31-160h302.459z" />
      <glyph glyph-name="folder" unicode=""
        d="M464 320c26.51 0 48-21.49 48-48V48c0-26.51-21.49-48-48-48H48C21.49 0 0 21.49 0 48v288c0 26.51 21.49 48 48 48h146.74a32 32 0 0022.63-9.37L272 320h192zm0-272v224H265.38a32 32 0 00-22.63 9.37L188.12 336H48V48h416z" />
      <glyph glyph-name="folder-open" unicode="" horiz-adv-x="576"
        d="M527.9 224c37.7 0 60.7-41.5 40.7-73.4l-79.9-128A47.98 47.98 0 00448 0H48C21.5 0 0 21.5 0 48v288c0 26.5 21.5 48 48 48h160l64-64h160c26.5 0 48-21.5 48-48v-48h47.9zM48 330V96.6l62.9 104.2c8.7 14.4 24.3 23.2 41.1 23.2h280v42c0 3.3-2.7 6-6 6H252.1l-64 64H54c-3.3 0-6-2.7-6-6zM448 48l80 128H149.2L72 48h376z" />
      <glyph glyph-name="arrows-v" unicode="" horiz-adv-x="320"
        d="M273.1 100.6L292.8 81c4.7-4.7 4.7-12.3 0-17L168.5-60.5c-4.7-4.7-12.3-4.7-17 0L27.2 64c-4.7 4.7-4.7 12.3 0 17l19.6 19.6c4.7 4.7 12.4 4.6 17.1-.2l70-73.2v329.6l-70-73.2c-4.6-4.899-12.3-5-17.1-.199l-19.6 19.6c-4.7 4.7-4.7 12.3 0 17l124.3 124.5c4.7 4.7 12.3 4.7 17 0L292.7 320c4.7-4.7 4.7-12.3 0-17l-19.6-19.6c-4.7-4.7-12.4-4.6-17.1.2l-70 73.2V27.2l70 73.2c4.6 4.9 12.3 5 17.1.199z" />
      <glyph glyph-name="arrows-h" unicode=""
        d="M347.404 305.14l19.625 19.626c4.687 4.687 12.285 4.687 16.97 0l124.487-124.279c4.685-4.688 4.685-12.285 0-16.972L384 59.235c-4.687-4.686-12.285-4.686-16.971 0l-19.626 19.626c-4.754 4.753-4.677 12.484.173 17.14l73.203 70H91.219l73.204-70c4.849-4.656 4.926-12.387.173-17.14L144.97 59.235c-4.687-4.686-12.285-4.686-16.97 0L3.513 183.515c-4.685 4.687-4.685 12.284 0 16.971l124.484 124.28c4.687 4.687 12.285 4.687 16.97 0l19.627-19.626c4.754-4.753 4.677-12.483-.173-17.14L91.22 218H420.78l-73.203 70c-4.849 4.657-4.926 12.387-.173 17.14z" />
      <glyph glyph-name="chart-bar" unicode=""
        d="M396.8 96c-6.4 0-12.8 6.4-12.8 12.8v230.4c0 6.4 6.4 12.8 12.8 12.8h22.4c6.4 0 12.8-6.4 12.8-12.8V108.8c0-6.4-6.4-12.8-12.8-12.8h-22.4zm-192 0c-6.4 0-12.8 6.4-12.8 12.8v198.4c0 6.4 6.4 12.8 12.8 12.8h22.4c6.4 0 12.8-6.4 12.8-12.8V108.8c0-6.4-6.4-12.8-12.8-12.8h-22.4zm96 0c-6.4 0-12.8 6.4-12.8 12.8v134.4c0 6.4 6.4 12.8 12.8 12.8h22.4c6.4 0 12.8-6.4 12.8-12.8V108.8c0-6.4-6.4-12.8-12.8-12.8h-22.4zM496 48c8.84 0 16-7.16 16-16V16c0-8.84-7.16-16-16-16H32C14.33 0 0 14.33 0 32v336c0 8.84 7.16 16 16 16h16c8.84 0 16-7.16 16-16V48h448zM108.8 96c-6.4 0-12.8 6.4-12.8 12.8v70.4c0 6.4 6.4 12.8 12.8 12.8h22.4c6.4 0 12.8-6.4 12.8-12.8v-70.4c0-6.4-6.4-12.8-12.8-12.8h-22.4z" />
      <glyph glyph-name="camera-retro" unicode=""
        d="M154 368H38c-3.3 0-6 2.7-6 6v36c0 3.3 2.7 6 6 6h116c3.3 0 6-2.7 6-6v-36c0-3.3-2.7-6-6-6zm358 0V16c0-26.5-21.5-48-48-48H48C21.5-32 0-10.5 0 16v288c0 26.5 21.5 48 48 48h136l33.6 44.8c9.1 12.1 23.3 19.2 38.4 19.2h208c26.5 0 48-21.5 48-48zm-48-64H48V16h416v288zm0 64H256l-12-16h220v16zm-88-208c0-66.2-53.8-120-120-120S136 93.8 136 160s53.8 120 120 120 120-53.8 120-120zm-48 0c0 39.7-32.3 72-72 72s-72-32.3-72-72 32.3-72 72-72 72 32.3 72 72zm-96 0c0-8.8-7.2-16-16-16s-16 7.2-16 16c0 30.9 25.1 56 56 56 8.8 0 16-7.2 16-16s-7.2-16-16-16c-13.2 0-24-10.8-24-24z" />
      <glyph glyph-name="key" unicode=""
        d="M320 400c-79.53 0-144-64.47-144-144v-.105c0-11.767 2.768-30.457 6.177-41.718L48 80v-96h96v48h48v48h32l42.34 42.339c16.584-6.664 34.692-10.34 53.66-10.34 79.53 0 144 64.471 144 144s-64.47 144-144 144zm0 48c106.046 0 192-85.965 192-192 0-106.046-85.965-192-192-192-13.54 0-26.894 1.396-39.951 4.167L240 28V8c0-13.255-10.745-24-24-24h-24v-24c0-13.255-10.745-24-24-24H24C10.745-64 0-53.255 0-40V89.941c0 5.487 3.15 13.09 7.03 16.97l122.77 122.77a192.917 192.917 0 00-1.8 26.32c0 106.045 85.965 192 192 192zm0-144c0 26.51 21.49 48 48 48s48-21.49 48-48-21.49-48-48-48-48 21.49-48 48z" />
      <glyph glyph-name="cogs" unicode="" horiz-adv-x="640"
        d="M217.1-30.1c-23.8 0-41.6 3.5-57.5 7.5C149-19.9 141.5-10.3 141.5.7v31.7c-9.4 4.4-18.4 9.6-26.9 15.6L87.9 32.6C78.3 27 66 28.8 58.4 36.9 23 74.5 14.2 95.5 1.2 135.4c-3.6 10.9 1.1 22.7 11 28.4l26.8 15c-.9 10.3-.9 20.7 0 31.1L12.2 225c-10 5.6-14.6 17.5-11 28.4 13.1 40 21.9 60.9 57.2 98.5 7.6 8.1 19.8 9.9 29.5 4.3l26.7-15.4c8.5 6 17.5 11.2 26.9 15.6v30.2c0 11.1 7.6 20.8 18.4 23.3 44.2 10.5 70 10.5 114.3 0 10.8-2.6 18.4-12.2 18.4-23.3v-30.4c9.4-4.4 18.4-9.6 26.9-15.6l26.7 15.4c9.701 5.6 21.9 3.7 29.6-4.4 26.101-27.9 48.4-58.5 56.8-100.3 2-9.8-2.4-19.8-10.9-25.1l-26.6-16.5c.9-10.3.9-20.7 0-31.1l26.6-16.5c8.4-5.2 12.9-15.2 10.9-24.9-8.1-40.5-29.6-71.3-56.9-100.601-7.6-8.1-19.799-9.9-29.5-4.3l-26.7 15.4c-8.5-6-17.5-11.2-26.9-15.6V.399c0-11-7.4-20.6-18.1-23.3-15.8-3.8-33.599-7.2-57.4-7.2zm-27.6 50.7c18.3-2.9 36.9-2.9 55.1 0v44.8l16 5.7c15.2 5.4 29.1 13.4 41.3 23.9l12.9 11 38.8-22.4c11.7 14.4 21 30.5 27.6 47.7l-38.8 22.4 3.1 16.7c2.9 15.9 2.9 32 0 47.9l-3.1 16.7 38.8 22.4c-6.6 17.2-15.9 33.3-27.6 47.7l-38.8-22.4-12.9 11c-12.3 10.5-26.2 18.6-41.3 23.9l-16 5.7V368c-18.3 2.9-36.9 2.9-55.1 0v-44.8l-16-5.7c-15.2-5.4-29.1-13.4-41.3-23.9l-12.9-11L80.5 305c-11.7-14.4-21-30.5-27.6-47.7l38.8-22.4-3.1-16.7c-2.9-15.9-2.9-32 0-47.9l3.1-16.7-38.8-22.4c6.6-17.2 15.9-33.4 27.6-47.7l38.8 22.4 12.9-11c12.3-10.5 26.2-18.6 41.3-23.9l16-5.7V20.6zm27.1 85.1c-22.6 0-45.2 8.6-62.4 25.8-34.4 34.4-34.4 90.4 0 124.8 34.4 34.4 90.4 34.4 124.8 0 34.401-34.4 34.401-90.4 0-124.8-17.3-17.2-39.9-25.8-62.4-25.8zm0 128.4c-10.3 0-20.6-3.9-28.5-11.8-15.7-15.7-15.7-41.2 0-56.9 15.7-15.7 41.2-15.7 56.9 0 15.7 15.7 15.7 41.2 0 56.9-7.8 7.9-18.1 11.8-28.4 11.8zM638.5 363c2-11.8 2-24 .1-36.2-.9-5.9-6-10.2-11.9-10.2h-16.1c-3.5-9.9-8.8-19-15.5-26.8l8-13.9c3-5.1 1.8-11.6-2.7-15.3-9.3-7.7-19.9-13.9-31.4-18.2-5.5-2-11.7.2-14.7 5.3l-8 13.9a84.49 84.49 0 00-30.9 0l-8-13.9c-2.9-5.2-9.2-7.4-14.7-5.3-11.5 4.3-22.1 10.5-31.4 18.2-4.5 3.7-5.6 10.2-2.7 15.3l8 13.9c-6.7 7.8-12 16.9-15.5 26.8H435c-5.9 0-10.9 4.2-11.9 10-1.9 11.7-2 24 0 36.2.9 5.9 6 10.2 11.9 10.2h16.1c3.5 9.9 8.8 19 15.5 26.8l-8 13.9c-3 5.1-1.8 11.6 2.7 15.3 9.3 7.7 19.9 13.9 31.4 18.2 5.5 2 11.7-.2 14.7-5.3l8-13.9c10.2 1.9 20.7 1.9 30.9 0l8 13.9c2.9 5.2 9.2 7.4 14.7 5.3 11.5-4.3 22-10.5 31.3-18.2 4.5-3.7 5.6-10.2 2.7-15.3l-8-13.9c6.7-7.8 12-16.9 15.5-26.8h16.1c5.9 0 10.9-4.2 11.9-10zm-107.8-50.2c17.7 0 32 14.3 32 32s-14.3 32-32 32-32-14.3-32-32 14.3-32 32-32zM638.5 57.4c2-11.8 2-24.1 0-36.2-.9-5.9-6-10.2-11.9-10.2h-16.1C607 1.1 601.7-8 595-15.8l8-13.9c3-5.1 1.8-11.6-2.7-15.3-9.3-7.7-19.9-13.9-31.4-18.2-5.5-2-11.7.2-14.7 5.3l-8 13.9c-10.2-1.9-20.7-1.9-30.9 0l-8-13.9c-2.9-5.2-9.2-7.4-14.7-5.3-11.5 4.3-22.1 10.5-31.4 18.2-4.5 3.7-5.6 10.2-2.7 15.3l8 13.9C459.8-8 454.5 1.1 451 11h-16.1C429 11 424 15.2 423 21c-1.9 11.7-2 24 0 36.2.9 5.9 6 10.2 11.9 10.2H451c3.5 9.9 8.8 19 15.5 26.8l-8 13.9c-3 5.1-1.8 11.6 2.7 15.3 9.3 7.7 19.9 13.9 31.4 18.2 5.5 2 11.7-.2 14.7-5.3l8-13.9c10.2 1.9 20.7 1.9 30.9 0l8 13.9c2.9 5.2 9.2 7.4 14.7 5.3 11.5-4.3 22.1-10.5 31.4-18.2 4.5-3.7 5.6-10.2 2.7-15.3l-8-13.9c6.7-7.8 12-16.9 15.5-26.8h16.1c5.9 0 10.9-4.2 11.9-10zM530.7 7.2c17.7 0 32 14.3 32 32s-14.3 32-32 32-32-14.3-32-32 14.3-32 32-32z" />
      <glyph glyph-name="comments" unicode="" horiz-adv-x="576"
        d="M532 61.8C547.3 31.1 569.4 7.3 569.8 7c6.3-6.7 8-16.5 4.4-25-3.7-8.5-12-14-21.2-14-53.6 0-96.7 20.3-125.2 38.8-19-4.4-39-6.8-59.8-6.8-86.2 0-159.9 40.4-191.3 97.8-9.7 1.2-19.2 2.8-28.4 4.9-28.5-18.6-71.7-38.8-125.2-38.8-9.2 0-17.6 5.5-21.2 14-3.7 8.5-1.9 18.3 4.4 25 .4.4 22.4 24.2 37.7 54.9C16.5 185 0 219 0 256c0 88.4 93.1 160 208 160 86.3 0 160.3-40.5 191.8-98.1C499.5 306.1 576 240 576 160c0-37.1-16.5-71.1-44-98.2zm-392.8 92.3l19.8-4.5c16-3.7 32.5-5.6 49-5.6 86.7 0 160 51.3 160 112s-73.3 112-160 112S48 316.7 48 256c0-28.7 16.2-50.6 29.7-64l24.8-24.5L87 136.4c-2.6-5.1-5.3-10.1-8-14.8 14.6 5.1 29 12.3 43.1 21.4zM498.3 96c13.5 13.4 29.7 35.3 29.7 64 0 49.2-48.3 91.5-112.7 106 .3-3.3.7-6.6.7-10 0-80.9-78-147.5-179.3-158.3C265.8 68.1 314 48 368 48c16.5 0 33 1.9 49 5.6l19.9 4.6L454 47.1c14.1-9.1 28.5-16.3 43.1-21.4-2.7 4.7-5.4 9.7-8 14.8l-15.5 31.1z" />
      <glyph glyph-name="star-half" unicode="" horiz-adv-x="576"
        d="M288 62.7V8.4L157.3-60.2c-23.4-12.3-50.9 7.6-46.4 33.7l25 145.5L30.2 222c-19 18.5-8.5 50.8 17.7 54.6L194 297.8l65.3 132.4c5.901 11.9 17.3 17.8 28.7 17.8v-68.1l-62.2-126-139-20.2 100.602-98-23.7-138.4z" />
      <glyph glyph-name="sign-out" unicode=""
        d="M96 384h84c6.6 0 12-5.4 12-12v-24c0-6.6-5.4-12-12-12H96c-26.5 0-48-21.5-48-48V96c0-26.5 21.5-48 48-48h84c6.6 0 12-5.4 12-12V12c0-6.6-5.4-12-12-12H96C43 0 0 43 0 96v192c0 53 43 96 96 96zm231.1-19.5c4.7 4.7 12.3 4.7 17 .1l164.4-164c4.7-4.7 4.7-12.3 0-17l-164.4-164c-4.7-4.7-12.3-4.7-17 0l-19.6 19.6c-4.7 4.7-4.6 12.4.2 17.1L420.8 166H172c-6.599 0-12 5.4-12 12v28c0 6.6 5.401 12 12 12h248.8L307.7 327.8c-4.9 4.6-5 12.3-.2 17.1z" />
      <glyph glyph-name="thumbtack" unicode="" horiz-adv-x="384"
        d="M306.5 261.4C354.4 228.6 384 177.3 384 120c0-13.2-10.8-24-24-24H216V-8c0-.8-.1-1.7-.4-2.5l-16-48c-2.4-7.3-12.8-7.3-15.2 0l-16 48c-.3.8-.4 1.6-.4 2.5V96H24c-13.2 0-24 10.8-24 24 0 57.3 29.6 108.6 77.5 141.4l5.7 42.6H56c-13.2 0-24 10.8-24 24v96c0 13.2 10.8 24 24 24h272c13.2 0 24-10.8 24-24v-96c0-13.2-10.8-24-24-24h-27.2zM50.5 144h283c-8.3 38.4-35.7 70-71.5 87.8L246 352h58v48H80v-48h58l-16-120.2C86.1 214 58.8 182.5 50.5 144z" />
      <glyph glyph-name="external-link" unicode="" horiz-adv-x="576"
        d="M576 433.6l-.174-163.199c0-7.953-6.447-14.4-14.4-14.4H528.12c-8.067 0-14.56 6.626-14.397 14.691l2.717 73.627-2.062 2.062L235.515 67.516c-4.686-4.686-12.283-4.686-16.97 0l-23.03 23.029c-4.686 4.686-4.686 12.284 0 16.97L474.379 386.38l-2.062 2.062-73.626-2.718c-8.065-.164-14.691 6.33-14.691 14.398v33.304c0 7.954 6.447 14.4 14.4 14.4l163.2.175c7.952 0 14.4-6.448 14.4-14.4zM427.515 214.26c7.56 7.56 20.485 2.206 20.485-8.484V-16c0-26.51-21.49-48-48-48H48C21.49-64 0-42.51 0-16v352c0 26.51 21.49 48 48 48h283.976c2.745 0 6.545-1.576 8.486-3.515l24-24c7.56-7.56 2.206-20.485-8.486-20.485H54c-3.311 0-6-2.689-6-6V-10c0-3.312 2.689-6 6-6h340c3.312 0 6 2.688 6 6v191.775c0 2.743 1.576 6.544 3.515 8.484z" />
      <glyph glyph-name="sign-in" unicode=""
        d="M416 0h-84c-6.6 0-12 5.4-12 12v24c0 6.6 5.4 12 12 12h84c26.5 0 48 21.5 48 48v192c0 26.5-21.5 48-48 48h-84c-6.6 0-12 5.4-12 12v24c0 6.6 5.4 12 12 12h84c53 0 96-43 96-96V96c0-53-43-96-96-96zM167.1 364.5c4.7 4.7 12.3 4.7 17 .1l164.4-164c4.7-4.7 4.7-12.3 0-17l-164.4-164c-4.7-4.7-12.3-4.7-17 0l-19.6 19.6c-4.7 4.7-4.6 12.4.2 17.1L260.8 166H12c-6.599 0-12 5.4-12 12v28c0 6.6 5.401 12 12 12h248.8L147.7 327.8c-4.9 4.6-5 12.3-.2 17.1z" />
      <glyph glyph-name="trophy" unicode="" horiz-adv-x="576"
        d="M448 384h112c8.8 0 16-7.2 16-16v-60.8c0-60.4-68.5-125.3-159.6-142.6C389 106.7 348.3 76.5 312 67.2V-16h64c22.1 0 40-17.9 40-40 0-4.4-3.6-8-8-8H168c-4.4 0-8 3.6-8 8 0 22.1 17.9 40 40 40h64v83.2c-36.3 9.2-77 39.5-104.4 97.4C68.3 182 0 246.9 0 307.2V368c0 8.8 7.2 16 16 16h112v48c0 8.8 7.2 16 16 16h288c8.8 0 16-7.2 16-16v-48zM48 307.2c0-29.1 37.2-69.1 92.3-88C130.1 259.8 128 296.8 128 336H48v-28.8zM288 112c51.2 0 112 75.5 112 216v72H176v-72c0-137.6 59-216 112-216zm240 195.2V336h-80c0-39.1-2.1-76.2-12.3-116.8 55.1 18.9 92.3 58.9 92.3 88z" />
      <glyph glyph-name="upload" unicode="" horiz-adv-x="576"
        d="M528 160c26.5 0 48-21.5 48-48V-16c0-26.5-21.5-48-48-48H48C21.5-64 0-42.5 0-16v128c0 26.5 21.5 48 48 48h144v32h-64c-42.7 0-64.1 51.8-34 81.9l160 160c18.8 18.7 49.1 18.8 67.9 0l160-160c30.3-30.2 8.7-81.9-33.9-81.9h-64v-32h144zm-400 80h112V80h96v160h112L288 400zM528-16v128H384V80c0-26.5-21.5-48-48-48h-96c-26.5 0-48 21.5-48 48v32H48V-16h480zm-40 64c0-13.3-10.7-24-24-24s-24 10.7-24 24 10.7 24 24 24 24-10.7 24-24z" />
      <glyph glyph-name="lemon" unicode=""
        d="M484.112 420.111c28.122-28.123 35.943-68.004 19.021-97.055-23.057-39.584 50.144-163.384-82.33-295.86C288.5-105.102 164.366-32.164 124.944-55.133 95.9-72.05 56.024-64.247 27.888-36.113-.234-7.99-8.056 31.892 8.866 60.943c23.057 39.586-50.143 163.386 82.33 295.86 132.308 132.31 256.407 59.35 295.862 82.332 29.05 16.922 68.931 9.099 97.054-19.023zm-22.405-72.894c13.517 23.203-27.758 63.731-50.488 50.491-66.603-38.794-165.646 45.59-286.081-74.846C4.694 202.417 89.093 103.39 50.293 36.782c-13.542-23.247 27.814-63.695 50.493-50.488 66.6 38.795 165.636-45.6 286.076 74.843 120.444 120.445 36.045 219.472 74.845 286.08zm-169.861-8.736c1.37-10.96-6.403-20.957-17.364-22.327-54.847-6.856-135.78-87.787-142.636-142.636-1.373-10.988-11.399-18.733-22.327-17.364-10.96 1.37-18.734 11.365-17.364 22.326 9.162 73.285 104.167 168.215 177.364 177.364 10.953 1.368 20.956-6.403 22.326-17.363z" />
      <glyph glyph-name="phone" unicode=""
        d="M476.5 425.1c20.9-4.8 35.5-23.2 35.5-44.6C512 134.3 312.3-64 67.4-63.9c-21.4 0-39.8 14.601-44.6 35.5L1.1 65.8c-4.9 21.601 6.2 43.601 26.6 52.3l101.6 43.5c18.6 8 40.6 2.601 53.4-13.1l32.7-40c52.4 28.5 95.6 71.701 124.2 124.1l-40 32.701c-15.7 12.8-21.1 34.8-13.1 53.4l43.5 101.5c8.7 20.4 30.7 31.6 52.3 26.6zM69.3-16C286.9-15 463 161.1 464 378.7l-90.7 20.9-42.1-98.2 68.1-55.7c-46.4-99-98.2-150.601-197-197l-55.7 68.1-98.2-42.1z" />
      <glyph glyph-name="phone-square" unicode="" horiz-adv-x="448"
        d="M400 416c26.51 0 48-21.49 48-48V16c0-26.51-21.49-48-48-48H48C21.49-32 0-10.51 0 16v352c0 26.51 21.49 48 48 48h352zm-6-400c3.312 0 6 2.688 6 6v340c0 3.312-2.688 6-6 6H54c-3.312 0-6-2.688-6-6V22c0-3.312 2.688-6 6-6h340zm-42 280c0-128.234-103.956-232-232-232-5.269.001-10.507 4.169-11.693 9.302l-12 52a14.495 14.495 0 00-.306 2.698c0 4.368 3.258 9.31 7.273 11.03l56 24c1.248.534 3.367.969 4.726.969 3.14 0 7.3-1.972 9.288-4.401l24.798-30.308c39.155 18.37 70.638 50.287 88.624 88.624L256.4 242.712C253.971 244.7 252 248.86 252 252c0 1.36.435 3.478.97 4.727l24 55.999c1.72 4.015 6.662 7.273 11.03 7.273.754 0 1.963-.138 2.698-.307l52-11.999C347.833 306.508 352 301.27 352 296z" />
      <glyph glyph-name="unlock" unicode="" horiz-adv-x="448"
        d="M400 208c26.5 0 48-21.5 48-48V-16c0-26.5-21.5-48-48-48H48C21.5-64 0-42.5 0-16v176c0 26.5 21.5 48 48 48h32v96c0 79.5 64.8 144.2 144.3 144C304 447.8 368 382.2 368 302.6V280c0-13.3-10.7-24-24-24s-24 10.7-24 24v24c0 53.3-43.6 96.6-97 96-52.9-.5-95-44.4-95-97.2V208h272zm0-224v176H48V-16h352z" />
      <glyph glyph-name="credit-card" unicode="" horiz-adv-x="576"
        d="M527.9 416c26.6 0 48.1-21.5 48.1-48V16c0-26.5-21.5-48-48.1-48H48.099c-26.6 0-48.1 21.5-48.1 48v352c0 26.5 21.5 48 48.1 48H527.9zM54.1 368c-3.3 0-6-2.7-6-6v-42h479.8v42c0 3.3-2.7 6-6 6H54.1zM521.9 16c3.3 0 6 2.7 6 6v170H48.099V22c0-3.3 2.7-6 6-6H521.9zM192 116V76c0-6.6-5.4-12-12-12h-72c-6.6 0-12 5.4-12 12v40c0 6.6 5.4 12 12 12h72c6.6 0 12-5.4 12-12zm192 0V76c0-6.6-5.4-12-12-12H236c-6.6 0-12 5.4-12 12v40c0 6.6 5.4 12 12 12h136c6.6 0 12-5.4 12-12z" />
      <glyph glyph-name="rss" unicode="" horiz-adv-x="448"
        d="M80 80c-17.645 0-32-14.355-32-32s14.355-32 32-32 32 14.355 32 32-14.355 32-32 32zm0 48c44.183 0 80-35.817 80-80s-35.817-80-80-80S0 3.817 0 48s35.817 80 80 80zM447.996-19.615C448.179-26.391 442.772-32 435.992-32h-24.02c-6.482 0-11.807 5.147-11.992 11.626-6.038 211.619-176.379 382.314-388.354 388.354C5.148 368.165 0 373.491 0 379.972v24.02c0 6.779 5.61 12.186 12.386 12.003 237.554-6.448 429.161-197.776 435.61-435.61zm-136.239.05c.267-6.792-5.201-12.435-11.998-12.436h-24.023c-6.432 0-11.705 5.072-11.98 11.497-5.848 136.747-115.49 246.411-252.259 252.258C5.072 232.03 0 237.303 0 243.734v24.024c0 6.798 5.643 12.266 12.435 12 162.53-6.356 292.967-136.768 299.322-299.323z" />
      <glyph glyph-name="hdd" unicode="" horiz-adv-x="576"
        d="M567.403 212.358A48.006 48.006 0 00576 184.946V48c0-26.51-21.49-48-48-48H48C21.49 0 0 21.49 0 48v136.946c0 8.31 3.851 20.59 8.596 27.412l105.08 151.053C121.583 374.776 139.236 384 153.08 384H422.92c13.844 0 31.498-9.224 39.404-20.589zM153.081 336L75.168 224h425.664l-77.913 112H153.08zM528 48v128H48V48h480zm-32 64c0-17.673-14.327-32-32-32s-32 14.327-32 32 14.327 32 32 32 32-14.327 32-32zm-96 0c0-17.673-14.327-32-32-32s-32 14.327-32 32 14.327 32 32 32 32-14.327 32-32z" />
      <glyph glyph-name="bullhorn" unicode="" horiz-adv-x="576"
        d="M544 263.12c19.05-11.09 32-31.49 31.99-55.13 0-23.63-12.95-44.03-32-55.12V0c0-9.22-7.08-32-32-32-6.193.006-15.144 3.15-19.98 7.02l-85.03 68.03C364.28 77.19 310.66 96 256 96h-28.08c-2.79-10.21-4.41-20.89-4.41-32 0-29.08 9.75-55.92 26.15-77.44 15.79-20.72.15-50.56-25.9-50.56H117.481c-11.88 0-23.21 6.37-28.4 17.06C72.78-13.35 63.52 24.23 63.52 64L64 96c-35.35 0-64 28.65-64 64v96c0 35.35 28.65 64 64 64h192c54.66 0 108.28 18.81 150.99 52.95l85.029 68.03A31.928 31.928 0 00512 448h.01c25.01 0 31.99-23.26 31.99-32.01V263.12zM127.73-16h66.99c-12.63 24.6-19.21 51.78-19.21 80 0 10.59 1.43 21.3 3.52 32h-64.91c-.88-6.66-2.601-17.78-2.601-32 0-27.69 5.45-54.55 16.21-80zM240 144v128H64c-8.82 0-16-7.18-16-16v-96c0-8.82 7.18-16 16-16h176zM496 33.3v349.4l-59.03-47.23c-42.81-34.23-94.8-55.38-148.97-61.46V141.99c54.17-6.08 106.16-27.231 148.96-61.45z" />
      <glyph glyph-name="certificate" unicode=""
        d="M489.199 192.073c41.129-40.26 24.15-102.52-31.145-116.634 15.472-54.342-30.458-101.196-85.465-85.519-14.263-55.93-77.078-71.579-116.59-31.17-39.566-40.464-102.252-25.05-116.588 31.17C84.536-25.72 38.433 20.957 53.946 75.44c-55.513 14.17-72.09 76.554-31.146 116.634-41.128 40.26-24.149 102.519 31.146 116.634-15.512 54.476 30.515 101.181 85.465 85.518 9.15 35.89 36.907 53.758 66.295 53.757 21.248 0 36.739-8.637 50.294-22.603 39.345 40.536 102.41 24.45 116.589-31.154 55.345 15.775 100.84-31.514 85.464-85.518 55.409-14.144 72.187-76.46 31.146-116.634zm-31.205-36.574l-37.364 36.566 37.363 36.566c11.137 10.544 5.943 29.281-8.665 32.775l-50.903 12.992 14.35 50.387c4.054 14.493-9.612 28.164-24.1 24.108l-50.37-14.354-12.987 50.92c-3.436 14.378-22.383 19.642-32.764 8.668L256 356.475l-36.554 37.652c-10.261 10.846-29.288 5.878-32.764-8.668l-12.987-50.92-50.37 14.354c-14.494 4.058-28.153-9.618-24.1-24.108l14.35-50.387-50.903-12.992c-14.615-3.495-19.798-22.236-8.665-32.775l37.363-36.566L54.007 155.5c-11.138-10.544-5.943-29.281 8.665-32.775l50.903-12.992-14.35-50.387c-4.054-14.493 9.611-28.164 24.1-24.108l50.37 14.354 12.987-50.92c3.606-15.089 22.5-19.517 32.764-8.668L256 27.379l36.555-37.376c10.156-10.958 29.239-6.082 32.764 8.668l12.987 50.92 50.37-14.354c14.492-4.057 28.154 9.617 24.1 24.108l-14.35 50.387 50.903 12.992c14.615 3.495 19.798 22.236 8.665 32.775z" />
      <glyph glyph-name="hand-point-right" unicode=""
        d="M428.8 310.4c45.1 0 83.2-38.102 83.2-83.2 0-45.616-37.764-83.2-83.2-83.2h-35.648c-1.416-6.368-4.968-16.252-7.93-22.065 2.507-22.006-3.502-44.977-15.984-62.79C368.098 6.657 331.84-32 269.298-32h-21.299c-60.063 0-98.511 40-127.2 40h-2.679C112.373 3.047 104.584 0 96 0H32C14.327 0 0 12.893 0 28.8v230.4C0 275.105 14.327 288 32 288h64.001c8.584 0 16.373-3.049 22.12-8h2.68c6.963 0 14.862 6.193 30.18 23.668l.13.149.13.145c8.857 9.937 18.117 20.84 25.851 33.253 18.705 30.247 30.394 78.784 75.707 78.784 56.928 0 92-35.286 92-83.2v-.084c0-6.218-.974-16.215-2.176-22.315H428.8zm0-118.4c18.976 0 35.2 16.225 35.2 35.2 0 18.7-16.775 35.2-35.2 35.2H270.401c0 17.325 26.4 35.2 26.4 70.4 0 26.4-20.626 35.2-44 35.2-8.795 0-20.445-32.712-34.926-56.1-9.075-14.575-19.525-27.225-30.8-39.875-16.109-18.374-33.835-36.632-59.074-39.596V55.676C170.79 51.913 202.509 16 248 16h21.298c40.525 0 57.124 22.197 50.601 61.325 14.611 8.001 24.151 33.979 12.925 53.625 19.365 18.225 17.787 46.381 4.95 61.05H428.8zM88 64c0 13.255-10.745 24-24 24S40 77.255 40 64s10.745-24 24-24 24 10.745 24 24z" />
      <glyph glyph-name="hand-point-left" unicode=""
        d="M0 227.2c0 45.099 38.1 83.2 83.2 83.2h86.176a115.489 115.489 0 00-2.176 22.4c0 47.914 35.073 83.2 92 83.2 45.314 0 57.002-48.537 75.706-78.785 7.735-12.412 16.995-23.316 25.85-33.253l.132-.146.129-.148C376.338 286.193 384.237 280 391.2 280h2.679c5.747 4.952 13.536 8 22.12 8h64c17.673 0 32-12.894 32-28.8V28.8C512 12.894 497.672 0 480 0h-64c-8.584 0-16.373 3.048-22.12 8H391.2C362.512 8 324.064-32 264-32h-21.299c-62.542 0-98.8 38.658-99.94 91.145-12.481 17.813-18.492 40.785-15.984 62.79-2.961 5.813-6.514 15.698-7.93 22.065H83.2C37.765 144 0 181.584 0 227.2zm48 0c0-18.976 16.225-35.2 35.2-35.2h91.025c-12.837-14.67-14.415-42.825 4.95-61.05-11.226-19.646-1.687-45.624 12.925-53.625C185.577 38.197 202.177 16 242.7 16H264c45.491 0 77.21 35.913 120 39.677v176.752c-25.24 2.962-42.966 21.222-59.075 39.596-11.275 12.65-21.725 25.3-30.799 39.875-14.481 23.388-26.132 56.1-34.926 56.1-23.375 0-44-8.8-44-35.2 0-35.2 26.4-53.075 26.4-70.4H83.2c-18.424 0-35.2-16.5-35.2-35.2zM448 88c-13.255 0-24-10.745-24-24s10.745-24 24-24 24 10.745 24 24-10.745 24-24 24z" />
      <glyph glyph-name="hand-point-up" unicode="" horiz-adv-x="448"
        d="M105.6 364.8c0 45.1 38.102 83.2 83.2 83.2 45.616 0 83.2-37.764 83.2-83.2v-35.647c6.368-1.416 16.252-4.968 22.065-7.93 22.006 2.508 44.977-3.502 62.79-15.984C409.343 304.1 448 267.841 448 205.3V184c0-60.063-40-98.511-40-127.2v-2.678c4.953-5.748 8-13.537 8-22.12v-64c0-17.673-12.893-32-28.8-32H156.8c-15.906 0-28.8 14.327-28.8 32v64c0 8.583 3.049 16.372 8 22.12V56.8c0 6.964-6.193 14.863-23.668 30.182l-.149.129-.145.13c-9.937 8.857-20.84 18.117-33.253 25.851C48.538 131.797.001 143.486.001 188.8c0 56.928 35.286 92 83.2 92h.084c6.218 0 16.215-.974 22.315-2.176V364.8zm118.4 0c0 18.976-16.225 35.2-35.2 35.2-18.7 0-35.2-16.775-35.2-35.2V206.401c-17.325 0-35.2 26.4-70.4 26.4-26.4 0-35.2-20.626-35.2-44 0-8.795 32.712-20.445 56.1-34.926 14.575-9.075 27.225-19.525 39.875-30.8 18.374-16.109 36.632-33.835 39.596-59.074h176.753C364.087 106.79 400 138.509 400 184v21.298c0 40.525-22.197 57.124-61.325 50.601-8.001 14.611-33.979 24.151-53.625 12.925-18.225 19.365-46.381 17.787-61.05 4.95V364.8zM352 24c-13.255 0-24-10.745-24-24s10.745-24 24-24 24 10.745 24 24-10.745 24-24 24z" />
      <glyph glyph-name="hand-point-down" unicode="" horiz-adv-x="448"
        d="M188.8-64c-45.099 0-83.2 38.1-83.2 83.2v86.176a115.489 115.489 0 00-22.4-2.176c-47.914 0-83.2 35.073-83.2 92 0 45.314 48.537 57.002 78.785 75.707 12.413 7.735 23.316 16.995 33.253 25.85l.146.132.148.129C129.807 312.338 136 320.238 136 327.2v2.679c-4.952 5.747-8 13.536-8 22.12v64c0 17.673 12.894 32 28.8 32h230.4c15.906 0 28.8-14.327 28.8-32v-64.001c0-8.584-3.048-16.373-8-22.12V327.2c0-28.688 40-67.137 40-127.2v-21.299c0-62.542-38.658-98.8-91.145-99.94-17.813-12.481-40.785-18.492-62.79-15.984-5.813-2.961-15.698-6.514-22.065-7.93V19.2c0-45.435-37.584-83.2-83.2-83.2zm0 48C207.776-16 224 .225 224 19.2v91.025c14.67-12.837 42.825-14.415 61.05 4.95 19.646-11.226 45.624-1.687 53.625 12.925C377.803 121.577 400 138.177 400 178.7V200c0 45.491-35.913 77.21-39.677 120H183.571c-2.962-25.24-21.222-42.966-39.596-59.075-12.65-11.275-25.3-21.725-39.875-30.799C80.712 215.645 48 203.994 48 195.2c0-23.375 8.8-44 35.2-44 35.2 0 53.075 26.4 70.4 26.4V19.2C153.6.777 170.1-16 188.8-16zM328 384c0-13.255 10.745-24 24-24s24 10.745 24 24-10.745 24-24 24-24-10.745-24-24z" />
      <glyph glyph-name="arrow-circle-left" unicode=""
        d="M504 192C504 55 393-56 256-56S8 55 8 192s111 248 248 248 248-111 248-248zm-448 0C56 81.5 145.5-8 256-8s200 89.5 200 200-89.5 200-200 200S56 302.5 56 192zM245.1 62.1L123.701 183.5c-4.7 4.7-4.7 12.3 0 17L245.1 321.9c4.7 4.699 12.3 4.699 17 0l19.6-19.601c4.8-4.8 4.7-12.5-.2-17.2l-70.3-67.1H372c6.6 0 12-5.4 12-12v-28c0-6.6-5.4-12-12-12H211.2l70.3-67.1c4.9-4.7 5-12.4.2-17.2l-19.6-19.6c-4.7-4.7-12.3-4.7-17 0z" />
      <glyph glyph-name="arrow-circle-right" unicode=""
        d="M8 192c0 137 111 248 248 248s248-111 248-248S393-56 256-56 8 55 8 192zm448 0c0 110.5-89.5 200-200 200S56 302.5 56 192 145.5-8 256-8s200 89.5 200 200zM266.9 321.9l121.399-121.4c4.7-4.7 4.7-12.3 0-17L266.9 62.1c-4.7-4.7-12.3-4.7-17 0l-19.6 19.6c-4.8 4.8-4.7 12.5.2 17.2l70.3 67.1H140c-6.6 0-12 5.4-12 12v28c0 6.6 5.4 12 12 12h160.8l-70.3 67.1c-4.9 4.7-5 12.4-.2 17.2l19.6 19.6c4.7 4.7 12.3 4.7 17 0z" />
      <glyph glyph-name="arrow-circle-up" unicode=""
        d="M256-56C119-56 8 55 8 192s111 248 248 248 248-111 248-248S393-56 256-56zm0 448c-110.5 0-200-89.5-200-200S145.5-8 256-8s200 89.5 200 200-89.5 200-200 200zM126.1 202.9l121.4 121.399c4.7 4.7 12.3 4.7 17 0L385.9 202.9c4.7-4.7 4.7-12.3 0-17l-19.6-19.6c-4.8-4.8-12.5-4.7-17.2.2L282 236.8V76c0-6.6-5.4-12-12-12h-28c-6.6 0-12 5.4-12 12v160.8l-67.1-70.3c-4.7-4.9-12.4-5-17.2-.2l-19.6 19.6c-4.7 4.7-4.7 12.3 0 17z" />
      <glyph glyph-name="arrow-circle-down" unicode=""
        d="M256 440c137 0 248-111 248-248S393-56 256-56 8 55 8 192s111 248 248 248zm0-448c110.5 0 200 89.5 200 200s-89.5 200-200 200S56 302.5 56 192 145.5-8 256-8zm129.9 206.1c4.7-4.7 4.7-12.3 0-17L264.5 59.701c-4.7-4.7-12.3-4.7-17 0L126.1 181.1c-4.7 4.7-4.7 12.3 0 17l19.6 19.6c4.8 4.8 12.5 4.7 17.2-.2l67.1-70.3V308c0 6.6 5.4 12 12 12h28c6.6 0 12-5.4 12-12V147.2l67.1 70.3c4.7 4.9 12.4 5 17.2.2z" />
      <glyph glyph-name="globe" unicode="" horiz-adv-x="496"
        d="M248 440c137 0 248-111 248-248S385-56 248-56 0 55 0 192s111 248 248 248zm179.3-160c-20.7 42-55.5 75.7-98.4 94.7 13.7-25.9 24.5-58.2 31.2-94.7h67.2zM248 392c-18.6 0-48.6-41.2-63.2-112h126.4c-14.6 70.8-44.6 112-63.2 112zM48 192c0-13.7 1.4-27.1 4-40h77.7c-1 13.1-1.7 26.3-1.7 40s.7 26.9 1.7 40H52c-2.6-12.9-4-26.3-4-40zm20.7-88c20.7-42 55.5-75.7 98.4-94.7-13.7 25.9-24.5 58.2-31.2 94.7H68.7zm67.2 176c6.7 36.5 17.5 68.8 31.2 94.7-42.9-19-77.7-52.7-98.4-94.7h67.2zM248-8c18.6 0 48.6 41.2 63.3 112H184.8C199.4 33.2 229.4-8 248-8zm70.1 160c1.1 12.8 2 26 2 40s-.8 27.2-1.9 40H177.9c-1.1-12.8-1.9-26-1.9-40s.8-27.2 1.9-40h140.2zM328.9 9.3c42.9 19 77.7 52.7 98.4 94.7h-67.2c-6.8-36.5-17.5-68.8-31.2-94.7zM366.3 152H444c2.6 12.9 4 26.3 4 40s-1.4 27.1-4 40h-77.7c1-13.1 1.7-26.3 1.7-40s-.7-26.9-1.7-40z" />
      <glyph glyph-name="wrench" unicode=""
        d="M507.48 330.82c13.03-52.35-2.57-108.521-40.66-146.62-37.85-37.79-91.7-52.8-143.49-40.93L139.99-39.99C124.48-55.47 103.89-64 82.01-64c-21.91 0-42.5 8.53-57.97 24.01C8.53-24.51 0-3.92 0 17.98s8.53 42.49 24.04 57.96l183.52 183.439c-11.88 51.9 3.09 105.65 40.72 143.271 38.63 38.62 93.45 53.88 146.54 40.69 12.23-3.03 21.91-12.42 25.29-24.53 3.37-12.07-.07-25.1-8.91-33.99l-58.67-58.64 5.38-32.41 32.44-5.4L449.01 347c8.81 8.86 21.87 12.31 33.97 8.97 12.09-3.36 21.5-12.98 24.5-25.15zm-74.61-112.69c20.63 20.62 31.57 47.88 31.25 76.14l-57.35-57.29-90.57 15.09-15.13 90.59 57.32 57.3h-1.12c-27.85 0-54.69-10.92-75.04-31.24-28.26-28.28-37.85-70-25.04-108.9l4.63-14.03L57.98 42.01c-6.44-6.42-9.97-14.95-9.97-24.029 0-9.08 3.53-17.62 9.97-24.04 12.78-12.81 35.22-12.84 48.07 0l203.75 203.67 14.06-4.69c38.81-12.89 80.54-3.25 109.01 25.21zM88.01 39.98c8.84 0 16-7.16 16-16s-7.16-16-16-16-16 7.16-16 16 7.16 16 16 16z" />
      <glyph glyph-name="tasks" unicode=""
        d="M512 320c0-6.6-5.4-12-12-12H204c-6.6 0-12 5.4-12 12v31.8c0 6.7 5.4 12.2 12 12.2h296c6.6 0 12-5.4 12-12v-32zm0-160c0-6.6-5.4-12-12-12H204c-6.6 0-12 5.4-12 12v32c0 6.6 5.4 12 12 12h296c6.6 0 12-5.4 12-12v-32zm0-160c0-6.6-5.4-12-12-12H204c-6.6 0-12 5.4-12 12v32c0 6.6 5.4 12 12 12h296c6.6 0 12-5.4 12-12V0zM162.1 383.2l-92-91.8c-4.7-4.7-12.3-4.7-17 0l-12.4 12.4-37.2 37.5c-4.7 4.7-4.7 12.3 0 17l12.4 12.4c4.7 4.7 12.3 4.7 17 0l28.8-29.2 71.1 71.1c4.7 4.7 12.3 4.7 17 0l12.4-12.4c4.6-4.8 4.6-12.4-.1-17zm0-159.9l-92-92c-4.7-4.7-12.3-4.7-17 0l-12.4 12.4-37.2 37.7c-4.7 4.7-4.7 12.3 0 17l12.4 12.4c4.7 4.7 12.3 4.7 17 0l28.8-29.2 71.1 71.1c4.7 4.7 12.3 4.7 17 0l12.4-12.4c4.6-4.7 4.6-12.3-.1-17zM64 64c26.5 0 48-21.5 48-48S90.5-32 64-32 16.4-10.5 16.4 16 37.5 64 64 64z" />
      <glyph glyph-name="filter" unicode=""
        d="M463.952 448c42.723 0 64.09-51.792 33.94-81.941L336 204.119V-16.665c0-39.938-45.527-60.255-76.8-38.4L195.2-8C183.114 2.666 176 16.892 176 32v172.118L14.115 366.059C-16.095 396.269 5.418 448 48.055 448h415.897zM288 224l176 176H48l176-176V32l64-48v240z" />
      <glyph glyph-name="briefcase" unicode=""
        d="M464 320c26.51 0 48-21.49 48-48V16c0-26.51-21.49-48-48-48H48C21.49-32 0-10.51 0 16v256c0 26.51 21.49 48 48 48h80v48c0 26.51 21.49 48 48 48h160c26.51 0 48-21.49 48-48v-48h80zm-288 48v-48h160v48H176zM54 272c-3.31 0-6-2.69-6-6v-74h416v74c0 3.31-2.69 6-6 6H54zM458 16c3.31 0 6 2.69 6 6v122H320v-24c0-13.25-10.75-24-24-24h-80c-13.25 0-24 10.75-24 24v24H48V22c0-3.31 2.69-6 6-6h404z" />
      <glyph glyph-name="arrows-alt" unicode=""
        d="M276 211.925h115.85v76.15c0 10.69 12.927 16.045 20.485 8.485l96.15-96.149c4.685-4.686 4.685-12.284 0-16.97l-96.15-96.15c-7.56-7.56-20.485-2.206-20.485 8.486v76.148H275.999V56.15h76.15c10.69 0 16.045-12.927 8.485-20.485l-96.149-96.15c-4.686-4.686-12.284-4.686-16.971 0l-96.149 96.149c-7.56 7.56-2.206 20.485 8.485 20.485H236v115.776H120.15V95.777c0-10.692-12.928-16.045-20.486-8.486l-96.15 96.15c-4.685 4.685-4.685 12.283 0 16.97l96.15 96.149c7.56 7.56 20.485 2.206 20.485-8.485v-76.15H236V327.85h-76.15c-10.69 0-16.044 12.927-8.484 20.485l96.149 96.15c4.686 4.685 12.284 4.685 16.971 0l96.149-96.15c7.56-7.56 2.206-20.485-8.485-20.485H276V211.925z" />
      <glyph glyph-name="users" unicode="" horiz-adv-x="640"
        d="M544 224c-44.2 0-80 35.8-80 80s35.8 80 80 80 80-35.8 80-80-35.8-80-80-80zm0 112c-17.6 0-32-14.4-32-32s14.4-32 32-32 32 14.4 32 32-14.4 32-32 32zM96 224c-44.2 0-80 35.8-80 80s35.8 80 80 80 80-35.8 80-80-35.8-80-80-80zm0 112c-17.6 0-32-14.4-32-32s14.4-32 32-32 32 14.4 32 32-14.4 32-32 32zm396.4-210.9c12.4-18.4 19.6-40.5 19.4-64.3V16c0-26.5-21.5-48-48-48h-288c-26.5 0-48 21.5-48 48v44.8c0 23.8 7.2 45.9 19.6 64.3 27.5 40.9 80.7 56 127.8 41.7 14.2-4.3 29.1-6.7 44.7-6.7 15.6 0 30.5 2.4 44.7 6.7 47.1 14.3 100.3-.9 127.8-41.7zM464 16v44.8c0 36.5-29.2 66.2-65.4 67.2-25.5-10.6-51.9-16-78.6-16s-53.1 5.4-78.6 16c-36.2-1-65.4-30.8-65.4-67.2V16h288zm92 176c46.3 0 84-37.7 83.9-84 0-13.2-10.8-24-24-24s-24 10.8-24 24c0 19.8-16.2 36-36 36h-24c-4.3 0-8.4-1.1-12.3-2.5-9.2 14-21 26.1-34.4 36.2 13.4 9 29.5 14.3 46.8 14.3h24zm-236 0c-61.9 0-112 50.1-112 112s50.1 112 112 112 112-50.1 112-112-50.1-112-112-112zm0 176c-35.3 0-64-28.7-64-64s28.7-64 64-64 64 28.7 64 64-28.7 64-64 64zM154.8 177.7c-13.4-10.1-25.2-22.2-34.5-36.2-3.8 1.4-7.9 2.5-12.3 2.5H84c-19.8 0-36-16.2-36-36 0-13.2-10.8-24-24-24S0 94.8 0 108c0 46.3 37.7 84 84 84h24c17.3 0 33.4-5.3 46.8-14.3z" />
      <glyph glyph-name="link" unicode=""
        d="M314.222 250.22c51.092-51.09 54.377-132.287 9.75-187.16-6.241-7.73-2.783-3.864-84.94-86.02-54.696-54.696-143.267-54.745-197.99 0-54.71 54.69-54.734 143.256 0 197.99 32.774 32.773 51.835 51.899 63.41 63.458 7.463 7.452 20.33 2.353 20.485-8.193.155-10.585 2.281-27.532 4.746-37.828.967-4.028-.271-8.269-3.201-11.198l-45.85-45.84c-32.754-32.773-32.886-85.89 0-118.8 32.776-32.754 85.893-32.886 118.8 0l75.19 75.201c32.719 32.725 32.778 86.013 0 118.79-5.536 5.547-15.757 12.818-22.814 16.229-4.623 2.233-7.181 7.25-6.56 12.346 1.355 11.122 6.296 21.885 14.814 30.405l4.375 4.375c3.625 3.626 9.178 4.594 13.761 2.294 12.999-6.524 25.186-15.211 36.024-26.05zm156.736 156.74c54.71-54.691 54.734-143.256.001-197.991-32.773-32.773-51.835-51.898-63.41-63.457-7.462-7.452-20.33-2.354-20.485 8.192-.155 10.585-2.28 27.533-4.746 37.828-.967 4.029.272 8.269 3.201 11.199l45.85 45.84c32.754 32.774 32.886 85.891 0 118.8-32.776 32.754-85.894 32.886-118.8 0l-75.191-75.2c-32.718-32.725-32.778-86.013 0-118.79 5.537-5.548 15.757-12.818 22.814-16.23 4.623-2.233 7.182-7.25 6.56-12.346-1.355-11.122-6.294-21.886-14.814-30.404l-4.375-4.375c-3.627-3.625-9.179-4.595-13.76-2.294-13 6.523-25.187 15.21-36.025 26.049-51.092 51.09-54.377 132.287-9.75 187.16 6.241 7.73 2.783 3.863 84.94 86.02 54.696 54.695 143.267 54.744 197.99 0z" />
      <glyph glyph-name="cloud" unicode="" horiz-adv-x="640"
        d="M543.7 247.9C600.8 227.8 640 173.8 640 112c0-79.5-64.5-144-144-144H160C71.6-32 0 39.6 0 128c0 65.6 39.9 123.9 99.7 148.2C116.5 356.3 187.4 416 272 416c56.1 0 105.7-26.3 137.6-66.3 7.3 1.5 14.8 2.3 22.4 2.3 59.4 0 107.7-46.1 111.7-104.1zM496 16c53 0 96 43 96 96s-43 96-96 96c-2.9 0-5.9-.1-8.8-.4 5.6 9.5 8.8 20.6 8.8 32.4 0 35.3-28.7 64-64 64-15.9 0-30.4-5.8-41.6-15.4C371.3 335.2 325.5 368 272 368c-70.7 0-128-57.3-128-128v-1.1c-54.3-7.8-96-54.5-96-110.9C48 66.1 98.1 16 160 16h336z" />
      <glyph glyph-name="flask" unicode="" horiz-adv-x="448"
        d="M437.2 44.5C466.5-2.5 432.8-64 377.1-64H70.9C15.3-64-18.5-2.6 10.8 44.5L128 233v167h-20c-6.6 0-12 5.4-12 12v24c0 6.6 5.4 12 12 12h232c6.6 0 12-5.4 12-12v-24c0-6.6-5.4-12-12-12h-20V233zM377.1-16c18.2 0 28.7 20.1 19.3 35.2L279.2 207.7c-4.7 7.6-7.2 16.3-7.2 25.3v167h-96V233c0-8.9-2.5-17.7-7.2-25.3L51.6 19.2C42.201 4.1 52.8-16 70.901-16h306.2z" />
      <glyph glyph-name="cut" unicode="" horiz-adv-x="448"
        d="M263.39 192L445.651 9.37c3.12-3.12 3.12-8.19 0-11.31-18.74-18.74-49.14-18.74-67.88 0L223.82 152.35l-43.1-43.18C187.92 95.71 192 80.33 192 64c0-53.02-42.98-96-96-96S0 10.98 0 64s42.98 96 96 96c16.31 0 31.66-4.07 45.11-11.24l43.15 43.24-43.15 43.24c-13.45-7.17-28.8-11.24-45.11-11.24-53.02 0-96 42.98-96 96s42.98 96 96 96 96-42.98 96-96c0-16.33-4.08-31.71-11.28-45.17l43.1-43.18 153.96 154.29c18.74 18.74 49.14 18.74 67.88 0 3.12-3.12 3.12-8.19 0-11.31zM96 272c26.47 0 48 21.53 48 48s-21.53 48-48 48-48-21.53-48-48 21.53-48 48-48zm0-256c26.47 0 48 21.53 48 48s-21.53 48-48 48-48-21.53-48-48 21.53-48 48-48z" />
      <glyph glyph-name="copy" unicode="" horiz-adv-x="448"
        d="M433.941 382.059c7.76-7.76 14.059-22.966 14.059-33.94V80c0-26.51-21.49-48-48-48h-80v-48c0-26.51-21.49-48-48-48H48C21.49-64 0-42.51 0-16v320c0 26.51 21.49 48 48 48h80v48c0 26.51 21.49 48 48 48h172.118c10.974 0 26.18-6.3 33.94-14.059zM266-16c3.312 0 6 2.688 6 6v42h-96c-26.51 0-48 21.49-48 48v224H54c-3.312 0-6-2.688-6-6V-10c0-3.312 2.688-6 6-6h212zm128 96c3.312 0 6 2.688 6 6v202h-88c-13.255 0-24 10.745-24 24v88H182c-3.312 0-6-2.688-6-6V86c0-3.312 2.688-6 6-6h212zm6 256v9.632c0 1.373-.787 3.273-1.757 4.243l-48.368 48.368a6.004 6.004 0 01-4.243 1.757H336v-64h64z" />
      <glyph glyph-name="paperclip" unicode=""
        d="M67.508-20.467c-58.005 58.013-58.016 151.92 0 209.942l225.01 225.04c44.644 44.646 117.28 44.646 161.922 0 44.742-44.749 44.753-117.186 0-161.943L264.974 63.082c-31.41-31.413-82.518-31.412-113.926 0-31.479 31.482-31.49 82.452 0 113.943L311.51 337.508c4.687 4.688 12.286 4.688 16.972 0l16.967-16.97c4.685-4.687 4.685-12.284 0-16.97L184.983 143.084c-12.724-12.724-12.73-33.328 0-46.058 12.696-12.697 33.356-12.7 46.054.001l189.465 189.488c25.987 25.99 25.994 68.06.001 94.057-25.93 25.933-68.12 25.931-94.049 0l-225.01-225.04c-39.249-39.251-39.259-102.794 0-142.057 39.283-39.29 102.884-39.286 142.161.028a868107.106 868107.106 0 00195.892 196.007c4.686 4.688 12.282 4.685 16.969-.004l16.967-16.97c4.685-4.687 4.69-12.28.004-16.965A970413.69 970413.69 0 01277.556-20.426c-58.033-58.092-152.004-58.093-210.048-.041z" />
      <glyph glyph-name="save" unicode="" horiz-adv-x="448"
        d="M433.941 318.059c7.76-7.76 14.059-22.966 14.059-33.94V16c0-26.51-21.49-48-48-48H48C21.49-32 0-10.51 0 16v352c0 26.51 21.49 48 48 48h268.118c10.974 0 26.18-6.3 33.94-14.059zM272 368H144v-80h128v80zM394 16c3.312 0 6 2.688 6 6v259.633c0 1.372-.787 3.272-1.757 4.242L320 364.118V264c0-13.255-10.745-24-24-24H120c-13.255 0-24 10.745-24 24v104H54c-3.312 0-6-2.688-6-6V22c0-3.311 2.688-6 6-6h340zM224 216c48.523 0 88-39.477 88-88s-39.477-88-88-88-88 39.477-88 88 39.477 88 88 88zm0-128c22.056 0 40 17.944 40 40s-17.944 40-40 40-40-17.944-40-40 17.944-40 40-40z" />
      <glyph glyph-name="square" unicode="" horiz-adv-x="448"
        d="M400 416c26.5 0 48-21.5 48-48V16c0-26.5-21.5-48-48-48H48C21.5-32 0-10.5 0 16v352c0 26.5 21.5 48 48 48h352zm-6-400c3.3 0 6 2.7 6 6v340c0 3.3-2.7 6-6 6H54c-3.3 0-6-2.7-6-6V22c0-3.3 2.7-6 6-6h340z" />
      <glyph glyph-name="bars" unicode="" horiz-adv-x="448"
        d="M436 324H12c-6.627 0-12 5.373-12 12v32c0 6.627 5.373 12 12 12h424c6.627 0 12-5.373 12-12v-32c0-6.627-5.373-12-12-12zm0-160H12c-6.627 0-12 5.373-12 12v32c0 6.627 5.373 12 12 12h424c6.627 0 12-5.373 12-12v-32c0-6.627-5.373-12-12-12zm0-160H12C5.373 4 0 9.373 0 16v32c0 6.627 5.373 12 12 12h424c6.627 0 12-5.373 12-12V16c0-6.627-5.373-12-12-12z" />
      <glyph glyph-name="list-ul" unicode=""
        d="M96 352c0-26.51-21.49-48-48-48S0 325.49 0 352s21.49 48 48 48 48-21.49 48-48zM48 240c26.51 0 48-21.49 48-48s-21.49-48-48-48-48 21.49-48 48 21.49 48 48 48zm0-160c26.51 0 48-21.49 48-48S74.51-16 48-16 0 5.49 0 32s21.49 48 48 48zm464 256c0-6.627-5.373-12-12-12H140c-6.627 0-12 5.373-12 12v32c0 6.627 5.373 12 12 12h360c6.627 0 12-5.373 12-12v-32zm0-160c0-6.627-5.373-12-12-12H140c-6.627 0-12 5.373-12 12v32c0 6.627 5.373 12 12 12h360c6.627 0 12-5.373 12-12v-32zm0-160c0-6.627-5.373-12-12-12H140c-6.627 0-12 5.373-12 12v32c0 6.627 5.373 12 12 12h360c6.627 0 12-5.373 12-12V16z" />
      <glyph glyph-name="list-ol" unicode=""
        d="M500 324H140c-6.627 0-12 5.373-12 12v32c0 6.627 5.373 12 12 12h360c6.627 0 12-5.373 12-12v-32c0-6.627-5.373-12-12-12zm12-148c0-6.627-5.373-12-12-12H140c-6.627 0-12 5.373-12 12v32c0 6.627 5.373 12 12 12h360c6.627 0 12-5.373 12-12v-32zm0-160c0-6.627-5.373-12-12-12H140c-6.627 0-12 5.373-12 12v32c0 6.627 5.373 12 12 12h360c6.627 0 12-5.373 12-12V16zM3.263 299.572v8.9c0 7.478 3.917 11.572 11.573 11.572h15.13v39.878c0 5.163.534 10.503.534 10.503h-.356s-1.779-2.67-2.848-3.739c-4.45-4.272-10.504-4.45-15.666 1.069l-5.518 6.231c-5.34 5.34-4.984 11.216.534 16.379l21.72 19.937c4.45 4.096 8.366 5.698 14.42 5.698H54.89c7.656 0 11.749-3.916 11.749-11.573v-84.382h15.489c7.655 0 11.572-4.095 11.572-11.573v-8.9c0-7.478-3.917-11.572-11.572-11.572H14.836c-7.656 0-11.573 4.094-11.573 11.572zM2.21 139.382v4.028c0 47.277 50.955 56.383 50.955 69.165 0 7.179-5.954 8.755-9.28 8.755-3.152 0-6.479-1.05-9.455-3.852-5.08-4.903-10.507-7.004-16.11-2.45l-8.58 6.829c-5.78 4.551-7.181 9.804-2.803 15.408C13.592 246.02 26.025 256 47.387 256c19.437 0 44.476-10.506 44.476-39.573 0-38.348-46.753-46.402-48.68-56.91h39.05c7.529 0 11.557-4.026 11.557-11.381v-8.755c0-7.354-4.028-11.382-11.557-11.382h-67.94c-7.004 0-12.082 4.029-12.082 11.382zM8.28-22.545C2.5-18.342 1.975-12.739 5.653-6.61l5.603 9.28c3.852 6.654 9.105 7.004 15.584 3.152C31.743 3.72 36.47 2.67 41.2 2.67c10.155 0 14.357 3.502 14.357 8.23 0 6.654-5.604 9.106-15.934 9.106h-4.728c-5.954 0-9.28 2.101-12.258 7.88l-1.05 1.926c-2.452 4.728-1.227 9.806 2.8 14.884l5.605 7.004c6.83 8.405 12.257 13.483 12.257 13.483v.35s-4.203-1.05-12.608-1.05H16.685c-7.53 0-11.383 4.027-11.383 11.381v8.755C5.302 92.148 9.155 96 16.685 96h58.484c7.53 0 11.382-4.027 11.382-11.382v-3.327c0-5.778-1.4-9.806-5.08-14.183L63.964 46.971c19.611-5.078 28.716-20.487 28.716-34.845C92.679-9.237 78.32-32 44.176-32 27.54-32 15.984-27.272 8.28-22.545z" />
      <glyph glyph-name="strikethrough" unicode=""
        d="M500 168H12c-6.627 0-12 5.373-12 12v24c0 6.627 5.373 12 12 12h488c6.627 0 12-5.373 12-12v-24c0-6.627-5.373-12-12-12zm-207.573-16h97.725c10.275-16.214 16.342-36.15 16.342-61.445 0-85.725-69.85-130.174-153.034-130.174-69.848 0-147.953 31.114-147.953 95.249V72c0 8.837 7.164 16 16 16h26.42c8.836 0 16-7.163 16-16 0-40.015 49.519-55.106 89.534-55.106 51.434 0 88.899 24.132 88.899 68.58 0 32.699-20.786 51.623-49.933 66.526zm-38.511 80H138.934c-14.712 17.554-23.903 40.303-23.903 71.277 0 84.454 67.943 120.648 143.508 120.648 67.31 0 135.89-25.398 135.89-74.294V328c0-8.837-7.164-16-16-16h-27.055c-8.773 0-16.055 7.064-16 15.837.167 26.447-40.479 40.21-76.834 40.21-43.815 0-78.738-20.32-78.738-61.594 0-40.8 33.09-58.298 74.115-74.453z" />
      <glyph glyph-name="underline" unicode="" horiz-adv-x="448"
        d="M0-52v24c0 6.627 5.373 12 12 12h424c6.627 0 12-5.373 12-12v-24c0-6.627-5.373-12-12-12H12C5.373-64 0-58.627 0-52zm278.066 488c0 6.627 5.373 12 12 12h135.779c6.627 0 12-5.373 12-12v-24c0-6.627-5.373-12-12-12h-40.44V187.55c0-105.884-67.828-161.89-161.401-161.89-95.368 0-161.402 55.178-161.402 161.89V400h-40.44c-6.627 0-12 5.373-12 12v24c0 6.627 5.373 12 12 12h135.781c6.627 0 12-5.373 12-12v-24c0-6.627-5.373-12-12-12h-40.44V188.119c0-75.708 39.605-111.005 106.5-111.005 66.546 0 106.503 37.72 106.503 112.144V400h-40.44c-6.627 0-12 5.373-12 12v24z" />
      <glyph glyph-name="table" unicode=""
        d="M464 416c26.51 0 48-21.49 48-48V16c0-26.51-21.49-48-48-48H48C21.49-32 0-10.51 0 16v352c0 26.51 21.49 48 48 48h416zM232 16v136H48V22c0-3.312 2.688-6 6-6h178zm0 184v136H48V200h184zM458 16c3.312 0 6 2.688 6 6v130H280V16h178zm6 184v136H280V200h184z" />
      </font>
</defs>
</svg>
